Музыкант - Пианист, народный артист России Денис Мацуев (Анна Матисон) [Россия, 2011, Документальный, DVB-AVC]


Статистика раздачи [Обновить пиров]
Размер:  914 MB   |    Зарегистрирован:  10 месяцев 30 дней   |    Скачан:  0 раз
Сидов:  2  [  0 KB/s  ]   Личеров:  4  [  0 KB/s  ]   Подробная статистика пиров
 
   
 
 
 

[Цитировать]

Музыкант - Пианист, народный артист России Денис Мацуев
Год выпуска: 2011
Страна: Россия
Жанр: Документальный
Продолжительность: 00:51:28
Перевод: Не требуется
Режиссер: Анна Матисон
Описание: Блистательный пианист-виртуоз, окончил Московскую государственную консерваторию имени П.И. Чайковского. Лауреат международных конкурсов, в том числе XI Международного конкурса имени П. И. Чайковского (1998).
Имя Дениса Мацуева неразрывно связано с традициями легендарной русской фортепианной школы, новаторством творческих концепций и глубиной художественных интерпретаций. Он желанный гость главных концертных залов мира, непременный участник крупнейших музыкальных фестивалей. Среди партнёров Мацуева по сцене Нью-Йоркский филармонический оркестр, оркестр Берлинской филармонии, Баварского радио, Лейпцигский Gewandhaus, Лондонский симфонический, а также амстердамский Concertgebouw и оркестр Мариинского театра. Тесные творческие контакты связывают Мацуева с такими выдающимися дирижёрами, как В. Гергиев, Ю. Темирканов, М. Янсонс, З. Мета, К. Мазур, Мюнг-Вун Чунг, А. Гилберт и многими другими.
Денис Мацуев является Президентом Фонда «Новые имена», также арт-директором фонда им. С. В. Рахманинова.
В 2006 году пианист вошёл в состав Совета по культуре и искусству при Президенте РФ и был удостоен звания «Заслуженный артист России». Денис Мацуев стал лауреатом Премии им. Д.Д. Шостаковича и Государственной премии РФ в области литературы и искусства, а в 2011 году пианисту было присвоено звание «Народный артист России». В декабре 2011 года Мацуев стал Почётным профессором МГУ, а 2012 году возглавил Общественный совет при Министерстве культуры РФ.
В 2014 году Денис Мацуев был удостоен чести выступать в официальной Церемонии Закрытия XXII Зимних Олимпийских игр в г. Сочи.
В апреле 2014 года ЮНЕСКО присвоила Д. Мацуеву почётное звание «Посол доброй воли ЮНЕСКО».
Член попечительского совета XVI Международного телевизионного конкурса юных музыкантов «Щелкунчик».
Доп. информация:
Запись потока *.ts с наземного цифрового телеканала "Беларусь 3", ремукс в *.mkv программой VideoReDo.
Синхронизация звука без перекодировки mkvmerge v8.5.1
Качество видео: DVB-AVC
Формат видео: MKV
Видео кодек: H.264
Аудио кодек: MP2
Видео: MPEG4 Video (H264) 720x576 (49:36) 25fps, 2 176 Kbps
Аудио: MP2, 256 kbps, 2 channels, 48 kHz
http://sendfile.su/1190370

MediaInfo

GeneralUnique ID : 175157642928838120459799326644051969198 (0x83C6228C1D94D01C8ECFB563078504AE)Complete name : D:\Новая земля 2\001 Документальный фильмы\Личности\Денис Мацуев (2011)\Музыкант - Пианист, народный артист России Денис Мацуев (2011).mkvFormat : MatroskaFormat version : Version 4 / Version 2File size : 914 MiBDuration : 51mn 28sOverall bit rate : 2 482 KbpsEncoded date : UTC 2016-01-06 10:09:27Writing application : mkvmerge v8.5.1 ('Where you lead I will follow') 32bitWriting library : libebml v1.3.3 + libmatroska v1.4.4
VideoID : 1Format : AVCFormat/Info : Advanced Video CodecFormat profile : Main@L3.0Format settings, CABAC : YesFormat settings, ReFrames : 4 framesFormat settings, GOP : M=4, N=24Codec ID : V_MPEG4/ISO/AVCDuration : 51mn 28sBit rate : 2 176 KbpsWidth : 720 pixelsHeight : 576 pixelsDisplay aspect ratio : 4:3Original display aspect ratio : 4:3Frame rate mode : ConstantFrame rate : 25.000 fpsStandard : PALColor space : YUVChroma subsampling : 4:2:0Bit depth : 8 bitsScan type : MBAFFScan order : Top Field FirstBits/(Pixel*Frame) : 0.210Stream size : 801 MiB (88%)Default : YesForced : NoColor primaries : BT.601 PALTransfer characteristics : BT.470 System B, BT.470 System GMatrix coefficients : BT.601Color range : LimitedDURATION : 00:51:28.480000000NUMBER_OF_FRAMES : 77212NUMBER_OF_BYTES : 858466798_STATISTICS_WRITING_APP : mkvmerge v8.5.1 ('Where you lead I will follow') 32bit_STATISTICS_WRITING_DATE_UTC : 2016-01-06 10:09:27_STATISTICS_TAGS : BPS DURATION NUMBER_OF_FRAMES NUMBER_OF_BYTES
AudioID : 2Format : MPEG AudioFormat version : Version 1Format profile : Layer 2Codec ID : A_MPEG/L2Codec ID/Hint : MP2Duration : 51mn 28sBit rate mode : ConstantBit rate : 256 KbpsChannel(s) : 2 channelsSampling rate : 48.0 KHzCompression mode : LossyDelay relative to video : 200msStream size : 94.3 MiB (10%)Language : EnglishDefault : YesForced : NoDURATION : 00:51:28.464000000NUMBER_OF_FRAMES : 128686NUMBER_OF_BYTES : 98830848_STATISTICS_WRITING_APP : mkvmerge v8.5.1 ('Where you lead I will follow') 32bit_STATISTICS_WRITING_DATE_UTC : 2016-01-06 10:09:27_STATISTICS_TAGS : BPS DURATION NUMBER_OF_FRAMES NUMBER_OF_BYTES
[teatrix.ru].t12611.torrent 
Торрент: Зарегистрирован [ 2016-01-06 17:25 ] · 08BBDDDCB9405DBFE3BD8FE6E7C4EBEA7BE1725B

Скачать .torrent

Скачать

18 KB

Статус: проверено
Скачан: 0 раз
Размер: 914 MB
terms.php



Быстрый ответ

Имя:

      
Для отправки сообщений необходимо включить JavaScript
Показать сообщения:    

Текущее время: 06-Дек 11:10

Часовой пояс: UTC + 3


Вы можете начинать темы
Вы можете отвечать на сообщения
Вы не можете редактировать свои сообщения
Вы не можете удалять свои сообщения
Вы не можете голосовать в опросах
Вы не можете прикреплять файлы к сообщениям
Вы можете скачивать файлы