Бог знает что / Heaven Knows What (Бен Сэфди / Ben Safdie, Джошуа Сэфди / Joshua Safdie) [2014, триллер, драма, HDRip] sub rus + original eng


 

[Цитировать]

Бог знает что / Heaven Knows WhatГод выпуска: 2014
Страна: США
Жанр: драма
Продолжительность: 01:36:45
Перевод: Субтитры
Cубтитры: русские (anyalu6)
Оригинальная аудиодорожка: английский
Режиссер: Бен Сэфди / Ben Safdie, Джошуа Сэфди / Joshua Safdie
Сценарий: Рональд Бронштейн / Ronald Bronstein, Джошуа Сэфди / Joshua Safdie, Ариэль Холмс / Arielle Holmes
Продюсер: Sebastian Bear-McClard, Оскар Бойсон / Oscar Boyson, Чарльз Антониоз / Charles Anthonioz, Mourad Belkeddar, Jean Dathanat
Оператор: Шон Прайс Уильямс / Sean Price Williams
Композитор: Пол Гримстад / Paul Grimstad, Эриель Пинк / Ariel Pink
В ролях: Рон Браунштейн, Элеанор Хендрикс, Ариэль Холмс, Калеб Лэндри Джонс, Роберт Шульман-Описание: Бог знает что» — почти документальная биографическая зарисовка жизни 21-летней Ариэль Холмс, молодой наркоманке, которая нашла безумную любовь на улицах Нью-Йорка.-Рейтинг
Кинопоиск
IMDB-Качество: HDRip
Формат: AVI
Видео: XviD; 720x400 (16:9); 1956 Kbps; 23,976 fps; 0,283 bpp
Аудио: AC3; 192 Kbps; CBR; 2 ch; 48.0 KHz-

MI

Format : AVI
Format/Info : Audio Video Interleave
File size : 1.46 GiB
Duration : 1h 36mn
Overall bit rate : 2 158 Kbps
Writing application : VirtualDubMod 1.5.10.3 | www.virtualdub-fr.org || (build 2550/release)
Writing library : VirtualDubMod build 2550/release
Video
ID : 0
Format : MPEG-4 Visual
Format profile : Advanced Simple@L5
Format settings, BVOP : 1
Format settings, QPel : No
Format settings, GMC : No warppoints
Format settings, Matrix : Default (MPEG)
Codec ID : XVID
Codec ID/Hint : XviD
Duration : 1h 36mn
Bit rate : 1 956 Kbps
Width : 720 pixels
Height : 400 pixels
Display aspect ratio : 16:9
Frame rate : 23.976 fps
Color space : YUV
Chroma subsampling : 4:2:0
Bit depth : 8 bits
Scan type : Progressive
Compression mode : Lossy
Bits/(Pixel*Frame) : 0.283
Stream size : 1.32 GiB (91%)
Writing library : XviD 1.2.1 (UTC 2008-12-04)
Audio
ID : 1
Format : AC-3
Format/Info : Audio Coding 3
Mode extension : CM (complete main)
Format settings, Endianness : Big
Codec ID : 2000
Duration : 1h 36mn
Bit rate mode : Constant
Bit rate : 192 Kbps
Channel(s) : 2 channels
Channel positions : Front: L R
Sampling rate : 48.0 KHz
Bit depth : 16 bits
Compression mode : Lossy
Stream size : 133 MiB (9%)
Alignment : Split accross interleaves
Interleave, duration : 42 ms (1.00 video frame)
Interleave, preload duration : 500 ms

Пример субтитров

881
00:53:28,440 --> 00:53:30,044
Можешь уйти, пожалуйста?
882
00:53:30,120 --> 00:53:33,203
Что у тебя в руках?
Что это у тебя в руках?
883
00:53:33,280 --> 00:53:35,487
Да не парься ты, это моя
чёртова книга.
884
00:53:36,200 --> 00:53:37,326
Какого хрена?
885
00:53:37,440 --> 00:53:39,522
Йо, верни мой грёбаный
телефон, Илья.
886
00:53:39,600 --> 00:53:42,171
- Это твой телефон?
- Да, мой телефон.
887
00:53:42,280 --> 00:53:43,486
Кто тебе его дал?
888
00:53:43,560 --> 00:53:44,846
Я его купила!
889
00:53:44,920 --> 00:53:46,968
Ты... Ага.
890
00:53:47,040 --> 00:53:49,122
Илья, верни мой грёбаный телефон.
891
00:53:51,000 --> 00:53:52,161
Что ты делаешь?
892
00:53:52,240 --> 00:53:55,289
Я, блин, убью его.
893
00:53:55,360 --> 00:53:56,407
Что?
894
00:53:56,480 --> 00:53:57,811
Кого убьёшь?
895
00:53:57,920 --> 00:53:59,490
Майкл, йо, йо. Да, да.
896
00:53:59,560 --> 00:54:01,927
Нет, я здесь с Харли.
897
00:54:03,000 --> 00:54:05,890
Да, да, мне нужна, нужна
одна доза.
898
00:54:05,960 --> 00:54:07,962
Да, давай встретимся у Barnes & Noble
через
899
00:54:08,040 --> 00:54:11,408
типа... да, 15...
да, отлично, отлично.
900
00:54:11,480 --> 00:54:12,561
15 минут.
901
00:54:12,640 --> 00:54:14,051
В Barnes & Noble.
902
00:54:14,120 --> 00:54:16,327
Окей, братан.
О, спасибо, спасибо.

Скриншоты






Показать сообщения:    

Текущее время: 04-Дек 02:55

Часовой пояс: UTC + 3


Вы не можете начинать темы
Вы не можете отвечать на сообщения
Вы не можете редактировать свои сообщения
Вы не можете удалять свои сообщения
Вы не можете голосовать в опросах
Вы не можете прикреплять файлы к сообщениям
Вы не можете скачивать файлы