Женитьба Фигаро (Валерий Маркин) [2011 г., комедия, WEB-DLRip] Калининградский областной драматический театр


 

[Цитировать]

Женитьба Фигаро Название театра: Калининградский областной драматический театр.
Год выпуска: 2011.
Жанр: комедия в 2-х действиях.
Продолжительность: 02:26:13.
Режиссер-постановщик: Валерий Маркин (Москва).
Действующие лица и исполнители:
Фигаро - Сергей Чернов,
Сюзанна - Диана Горбунова,
Граф Альмавива - заслуженный артист России Николай Захаров,
Графиня - Светлана Захарова,
Керубино - Антон Захаров,
Марселина - заслуженная артистка России Надежда Гайдар,
Бартолло - Геннадий Марьев,
Антонио - Алексей Грызунов,
Фаншетта - Любовь Орлова,
Базиль - заслуженный артист России Василий Швечков (ст.),
Судья - заслуженный артист России Альберт Арнтгольц,
Дубльмен - Геннадий Филиппович,
Пейзане - Яна Догвшан, Василий Швечков (мл.), Людмила Козлова, Сергей Борисов, Светлана Малиновская, Елена Носырева, Юлия Стерлигова, Михаил Шевяков, Павел Ботвиновский, Алексей Переберин, Артем Лернер, Максим Махинов.
О спектакле:
Это, пожалуй, самая известная пьеса Бомарше, её сюжет настолько популярен, а главный герой так харизматичен, что история о хитром и предприимчивом слуге Фигаро выдерживает сотни постановок, вдохновляет Моцарта на написание одноимённой оперы, а в век кинематографа рождает десятки экранизаций.
Фигаро, слуга графа Альмавивы хочет жениться на Сюзанне, горничной графини Розины, в связи с этим в доме графа в течение одного дня разворачиваются интриги, сцены ревности и даже судебное разбирательство по старым долгам.

Дополнительная информация:
Страна: Россия .
Автор: Пьер-Огюстен Карон де Бомарше
Перевод: НиколаЙ Любимов.
Художник-постановщик: Ефим Раух (Москва).
Хореография: Татьяна Соловьева
Композитор: Екатерина Дмитриева.
Премьера спектакля состоялась 21 ноября 2011 года.

О спектакле.
Релиз
Рип sharky.

Качество видео:...WEB-DLRip
Формат:.................AVI
Видео:..704x384 (1.83:1), 25 fps, XviD build 47 ~1996 kbps avg, 0.29 bit/pixel
Аудио:..44.100 kHz, MPEG Layer 3, 2 ch, ~128.00 kbps avg

Отчет MI

Общее
Полное имя : Zhenit'ba.Figaro_Kaliningradskij.ODT.2011.XviD.WEB-DLRip.fenixclub.avi
Format : AVI
Format/Info : Audio Video Interleave
Format profile : OpenDML
File size : 2.18 GiB
Duration : 2h 26mn
Overall bit rate : 2 131 Kbps
Writing application : VirtualDubMod 1.5.10.2 (build 2540/release)
Writing library : VirtualDubMod build 2540/release
Video
ID : 0
Format : MPEG-4 Visual
Format profile : Advanced Simple@L5
Format settings, BVOP : 1
Format settings, QPel : No
Format settings, GMC : No warppoints
Format settings, Matrix : Default (H.263)
Codec ID : XVID
Codec ID/Hint : XviD
Duration : 2h 26mn
Bit rate : 1 991 Kbps
Width : 704 pixels
Height : 384 pixels
Display aspect ratio : 1.85:1
Frame rate : 25.000 fps
Color space : YUV
Chroma subsampling : 4:2:0
Bit depth : 8 bits
Scan type : Progressive
Compression mode : Lossy
Bits/(Pixel*Frame) : 0.295
Stream size : 2.03 GiB (93%)
Writing library : XviD 1.2.0.dev47 (UTC 2006-11-01)
Audio
ID : 1
Format : MPEG Audio
Format version : Version 1
Format profile : Layer 3
Codec ID : 55
Codec ID/Hint : MP3
Duration : 2h 26mn
Bit rate mode : Constant
Bit rate : 128 Kbps
Channel(s) : 2 channels
Sampling rate : 44.1 KHz
Compression mode : Lossy
Stream size : 134 MiB (6%)
Alignment : Split accross interleaves
Interleave, duration : 40 ms (1.00 video frame)
Interleave, preload duratio : 500 ms
Writing library : LAME3.97
Encoding settings : -m s -V 4 -q 2 -lowpass 17 -b 128

Скриншоты


Альтернативный хост





Показать сообщения:    

Текущее время: 11-Дек 09:06

Часовой пояс: UTC + 3


Вы не можете начинать темы
Вы не можете отвечать на сообщения
Вы не можете редактировать свои сообщения
Вы не можете удалять свои сообщения
Вы не можете голосовать в опросах
Вы не можете прикреплять файлы к сообщениям
Вы не можете скачивать файлы