(Classical/Cello/Concerto) Shostakovich / Шостакович: Cello Concertos (Gautier Capuçon, Mariinsky Theatre Orchestra, Valery Gergiev / Гергиев) [Erato] - 2015, FLAC (tracks+.cue) lossless


Статистика раздачи [Обновить пиров]
Размер:  271 MB   |    Зарегистрирован:  11 месяцев 3 дня   |    Скачан:  1 раз

Полного источника не было: 1 месяц 15 дней

Личеров:  5  [  0 KB/s  ]   Подробная статистика пиров
 
   
 
 
 

[Цитировать]

Gautier Capuçon — Dmitri Shostakovich: Cello Concertos-Classical/Cello/Concerto • Erato • № 2564606973 • 2015 • lossless • FLAC • tracks+.cue • 01:07:04 • what.cd • сканов нет-01-04. Cello Concerto No. 1 in E flat major, Op. 107
05-07. Cello Concerto No. 2 in G minor, Op. 126
-Gautier Capucon - cello || Mariinsky Theatre Orchestra || Valery Gergiev - conductor-

cue

REM GENRE Classical
REM DATE 2015
REM DISCID 640FB807
REM COMMENT "ExactAudioCopy v1.0b3"
PERFORMER "Gautier Capuзon; Mariinsky Orchestra/Valery Gergiev"
TITLE "Shostakovich: Cello Concertos [Capuзon]"
FILE "01 - Cello Concerto No. 1- I. Allegretto.wav" WAVE
TRACK 01 AUDIO
TITLE "Cello Concerto No. 1: I. Allegretto"
PERFORMER "Gautier Capuзon; Mariinsky Orchestra/Valery Gergiev"
INDEX 01 00:00:00
FILE "02 - II. Moderato (attaca).wav" WAVE
TRACK 02 AUDIO
TITLE "II. Moderato (attaca)"
PERFORMER "Gautier Capuзon; Mariinsky Orchestra/Valery Gergiev"
INDEX 01 00:00:00
FILE "03 - III. Cadenza (attaca).wav" WAVE
TRACK 03 AUDIO
TITLE "III. Cadenza (attaca)"
PERFORMER "Gautier Capuзon; Mariinsky Orchestra/Valery Gergiev"
INDEX 01 00:00:00
FILE "04 - IV. Finale- Allegro con moto.wav" WAVE
TRACK 04 AUDIO
TITLE "IV. Finale: Allegro con moto"
PERFORMER "Gautier Capuзon; Mariinsky Orchestra/Valery Gergiev"
INDEX 01 00:00:00
FILE "05 - Cello Concerto No. 2- I. Largo.wav" WAVE
TRACK 05 AUDIO
TITLE "Cello Concerto No. 2: I. Largo"
PERFORMER "Gautier Capuзon; Mariinsky Orchestra/Valery Gergiev"
INDEX 01 00:00:00
FILE "06 - II. Allegretto (attaca).wav" WAVE
TRACK 06 AUDIO
TITLE "II. Allegretto (attaca)"
PERFORMER "Gautier Capuзon; Mariinsky Orchestra/Valery Gergiev"
INDEX 01 00:00:00
FILE "07 - III. Allegretto.wav" WAVE
TRACK 07 AUDIO
TITLE "III. Allegretto"
PERFORMER "Gautier Capuзon; Mariinsky Orchestra/Valery Gergiev"
INDEX 01 00:00:00

log

Exact Audio Copy V1.0 beta 3 from 29. August 2011
EAC extraction logfile from 25. November 2015, 20:44
Gautier Capuçon; Mariinsky Orchestra/Valery Gergiev / Shostakovich: Cello Concertos [Capuçon]
Used drive : HL-DT-STDVD+-RW GT30N Adapter: 0 ID: 1
Read mode : Secure
Utilize accurate stream : Yes
Defeat audio cache : Yes
Make use of C2 pointers : No
Read offset correction : 103
Overread into Lead-In and Lead-Out : No
Fill up missing offset samples with silence : Yes
Delete leading and trailing silent blocks : No
Null samples used in CRC calculations : Yes
Used interface : Native Win32 interface for Win NT & 2000
Gap handling : Appended to previous track
Used output format : User Defined Encoder
Selected bitrate : 128 kBit/s
Quality : High
Add ID3 tag : No
Command line compressor : C:\Program Files (x86)\Exact Audio Copy\Flac\flac.exe
Additional command line options : -8 -V -T "ARTIST=%artist%" -T "TITLE=%title%" -T "ALBUM=%albumtitle%" -T "DATE=%year%" -T "TRACKNUMBER=%tracknr%" -T "GENRE=%genre%" -T "PERFORMER=%albuminterpret%" -T "COMPOSER=%composer%" %haslyrics%--tag-from-file=LYRICS="%lyricsfile%"%haslyrics% -T "ALBUMARTIST=%albumartist%" -T "DISCNUMBER=%cdnumber%" -T "TOTALDISCS=%totalcds%" -T "TOTALTRACKS=%numtracks%" -T "COMMENT=%comment%" %source% -o %dest%
TOC of the extracted CD
Track | Start | Length | Start sector | End sector
---------------------------------------------------------
1 | 0:00.00 | 6:27.33 | 0 | 29057
2 | 6:27.33 | 13:50.05 | 29058 | 91312
3 | 20:17.38 | 6:31.05 | 91313 | 120642
4 | 26:48.43 | 4:45.73 | 120643 | 142090
5 | 31:34.41 | 14:36.65 | 142091 | 207855
6 | 46:11.31 | 4:25.00 | 207856 | 227730
7 | 50:36.31 | 16:27.45 | 227731 | 301800
Track 1
Filename C:\FLACs\Shostakovich - Cello Concertos [Capuçon]\01 - Cello Concerto No. 1- I. Allegretto.wav
Pre-gap length 0:00:02.00
Peak level 93.1 %
Extraction speed 1.3 X
Track quality 99.9 %
Test CRC 7718474F
Copy CRC 7718474F
Accurately ripped (confidence 1) [D4466FCE] (AR v2)
Copy OK
Track 2
Filename C:\FLACs\Shostakovich - Cello Concertos [Capuçon]\02 - II. Moderato (attaca).wav
Peak level 55.3 %
Extraction speed 1.8 X
Track quality 100.0 %
Test CRC 8FAD699F
Copy CRC 8FAD699F
Accurately ripped (confidence 1) [9AF2653D] (AR v2)
Copy OK
Track 3
Filename C:\FLACs\Shostakovich - Cello Concertos [Capuçon]\03 - III. Cadenza (attaca).wav
Peak level 57.4 %
Extraction speed 1.8 X
Track quality 99.9 %
Test CRC 400BCC08
Copy CRC 400BCC08
Accurately ripped (confidence 1) [9601D2EC] (AR v2)
Copy OK
Track 4
Filename C:\FLACs\Shostakovich - Cello Concertos [Capuçon]\04 - IV. Finale- Allegro con moto.wav
Peak level 94.8 %
Extraction speed 2.0 X
Track quality 100.0 %
Test CRC F24E93B3
Copy CRC F24E93B3
Accurately ripped (confidence 1) [621B2F76] (AR v2)
Copy OK
Track 5
Filename C:\FLACs\Shostakovich - Cello Concertos [Capuçon]\05 - Cello Concerto No. 2- I. Largo.wav
Peak level 81.9 %
Extraction speed 2.4 X
Track quality 100.0 %
Test CRC 91A25D1A
Copy CRC 91A25D1A
Accurately ripped (confidence 1) [79C66C1C] (AR v2)
Copy OK
Track 6
Filename C:\FLACs\Shostakovich - Cello Concertos [Capuçon]\06 - II. Allegretto (attaca).wav
Peak level 81.0 %
Extraction speed 2.3 X
Track quality 100.0 %
Test CRC 71F4A27A
Copy CRC 71F4A27A
Accurately ripped (confidence 1) [1FDBCB27] (AR v2)
Copy OK
Track 7
Filename C:\FLACs\Shostakovich - Cello Concertos [Capuçon]\07 - III. Allegretto.wav
Peak level 89.6 %
Extraction speed 2.8 X
Track quality 100.0 %
Test CRC F745B098
Copy CRC F745B098
Accurately ripped (confidence 1) [FD4F1C57] (AR v2)
Copy OK
All tracks accurately ripped
No errors occurred
End of status report
---- CUETools DB Plugin V2.1.3
[CTDB TOCID: nuw_T5qxZZSHjRgt5FF1JuYxoR4-] disk not present in database, Submit result: nuw_T5qxZZSHjRgt5FF1JuYxoR4- has been uploaded
==== Log checksum 4B6E7DA223AF56F0C3FA99101BC83A596563AE78694455A4414FDE7BFAF1B9B9 ====
[teatrix.ru].t12619.torrent 
Торрент: Зарегистрирован [ 2016-01-06 21:30 ] · 51BC6A8D52AD865B59391CAFC021675C82CF003E

Скачать .torrent

Скачать

12 KB

Статус: проверено
Скачан: 1 раз
Размер: 271 MB
terms.php



Быстрый ответ

Имя:

      
Для отправки сообщений необходимо включить JavaScript
Показать сообщения:    

Текущее время: 09-Дек 22:21

Часовой пояс: UTC + 3


Вы можете начинать темы
Вы можете отвечать на сообщения
Вы не можете редактировать свои сообщения
Вы не можете удалять свои сообщения
Вы не можете голосовать в опросах
Вы не можете прикреплять файлы к сообщениям
Вы можете скачивать файлы