(Classical/Cello/Concerto) Elgar: Cello Concerto in E minor, op.85; Dvorak; Respighi (Sol Gabetta, Mario Venzago, Danish National SO) - 2010, FLAC (tracks+.cue) lossless


Статистика раздачи [Обновить пиров]
Размер:  345 MB   |    Зарегистрирован:  11 месяцев 3 дня   |    Скачан:  0 раз

Полного источника не было: Никогда

Личеров:  3  [  0 KB/s  ]   Подробная статистика пиров
 
   
 
 
 

[Цитировать]

Sol Gabetta — Elgar: Cello Concerto, op.85-Classical/Cello/Concerto • RCA • № 88697658242 • 2010 • lossless • FLAC • tracks+.cue • 01:22:51 • what.cd • сканов нет-01-04. Elgar: Cello Concerto in E minor, op.85
05. Elgar: Sospiri, op.70
06. Elgar: Salut d'amour, op.12
07. Elgar: La Capricieuse, op.17
08. Dvorák: Waldesruh, op.68 No.5
09. Dvorák: Rondo in G Minor, op.94
10. Respighi: Adagio con Variazioni
Bonus CD: 01-02. Pēteris Vasks‧Grāmata čellam 'The Book' for solo cello
-Sol Gabetta - cello || Danish National Symphony Orchestra || Mario Venzago - conductor

cue

TITLE "Elgar · Cello Concerto (Disc 01)"
PERFORMER "Sol Gabetta"
REM GENRE "Klassik"
REM DATE 2010
FILE "01 - Elgar · Concerto for cello and orchestra in E minor, op. 85 - 1. Adagio - Moderato.wav" WAVE
TRACK 01 AUDIO
TITLE "Elgar · Concerto for cello and orchestra in E minor, op. 85 - 1. Adagio - Moderato"
ISRC DEE471000022
INDEX 01 00:00:00
FILE "02 - Elgar · Concerto for cello and orchestra in E minor, op. 85 - 2. Lento - Allegro molto.wav" WAVE
TRACK 02 AUDIO
TITLE "Elgar · Concerto for cello and orchestra in E minor, op. 85 - 2. Lento - Allegro molto"
ISRC DEE471000023
INDEX 01 00:00:00
FILE "03 - Elgar · Concerto for cello and orchestra in E minor, op. 85 - 3. Adagio.wav" WAVE
TRACK 03 AUDIO
TITLE "Elgar · Concerto for cello and orchestra in E minor, op. 85 - 3. Adagio"
ISRC DEE471000024
INDEX 01 00:00:00
FILE "04 - Elgar · Concerto for cello and orchestra in E minor, op. 85 - 4. Allegro - Moderato - Allegro ma non troppo.wav" WAVE
TRACK 04 AUDIO
TITLE "Elgar · Concerto for cello and orchestra in E minor, op. 85 - 4. Allegro - Moderato - Allegro ma non troppo"
ISRC DEE471000025
INDEX 01 00:00:00
FILE "05 - Elgar · Concerto for cello and orchestra in E minor, op. 85 - 5. Sospiri.wav" WAVE
TRACK 05 AUDIO
TITLE "Elgar · Concerto for cello and orchestra in E minor, op. 85 - 5. Sospiri"
ISRC DEE471000026
INDEX 01 00:00:00
FILE "06 - Elgar · Concerto for cello and orchestra in E minor, op. 85 - 6. Salut d'amour.wav" WAVE
TRACK 06 AUDIO
TITLE "Elgar · Concerto for cello and orchestra in E minor, op. 85 - 6. Salut d'amour"
ISRC DEE471000027
INDEX 01 00:00:00
FILE "07 - Elgar · Concerto for cello and orchestra in E minor, op. 85 - 7. La capricieuse.wav" WAVE
TRACK 07 AUDIO
TITLE "Elgar · Concerto for cello and orchestra in E minor, op. 85 - 7. La capricieuse"
ISRC DEE471000028
INDEX 01 00:00:00
FILE "08 - Dvorák · Waldesruh', op. 68 No. 5.wav" WAVE
TRACK 08 AUDIO
TITLE "Dvorák · Waldesruh', op. 68 No. 5"
ISRC DEE471000029
INDEX 01 00:00:00
FILE "09 - Dvorák · Rondo for cello and orchestra in G minor, op. 94.wav" WAVE
TRACK 09 AUDIO
TITLE "Dvorák · Rondo for cello and orchestra in G minor, op. 94"
ISRC DEE471000030
INDEX 01 00:00:00
FILE "10 - Respighi · Adagio con variazioni.wav" WAVE
TRACK 10 AUDIO
TITLE "Respighi · Adagio con variazioni"
ISRC DEE471000031
INDEX 01 00:00:00

Bonus CD:

TITLE "Elgar Bonus CD Vasks Gramata cellam"
PERFORMER "Sol Gabetta"
FILE "01 - peteris vasks the book marcatissimo.wav" WAVE
TRACK 01 AUDIO
TITLE "peteris vasks the book marcatissimo"
ISRC DEE471000033
INDEX 01 00:00:00
FILE "02 - dolcissimo.wav" WAVE
TRACK 02 AUDIO
TITLE "dolcissimo"
ISRC DEE471000034
INDEX 01 00:00:00

EAC

X Lossless Decoder version 20100412 (117.3)
XLD extraction logfile from 2010-04-16 07:29:24 +0200
Sol Gabetta / Elgar · Cello Concerto (Disc 01)
Used drive : BENQ DVD DD DW1650 (revision BCDC)
Use cdparanoia mode : YES (CDParanoia III 10.2 engine)
Disable audio cache : OK for the drive with cache less than 2750KB
Make use of C2 pointers : NO
Read offset correction : 102
Max retry count : 100
TOC of the extracted CD
Track | Start | Length | Start sector | End sector
---------------------------------------------------------
1 | 00:00:00 | 08:04:64 | 0 | 36363
2 | 08:04:64 | 04:35:32 | 36364 | 57020
3 | 12:40:21 | 04:20:07 | 57021 | 76527
4 | 17:00:28 | 11:24:59 | 76528 | 127886
5 | 28:25:12 | 04:52:37 | 127887 | 149823
6 | 33:17:49 | 03:02:14 | 149824 | 163487
7 | 36:19:63 | 04:22:31 | 163488 | 183168
8 | 40:42:19 | 05:47:35 | 183169 | 209228
9 | 46:29:54 | 07:39:50 | 209229 | 243703
10 | 54:09:29 | 11:45:38 | 243704 | 296616
Track 01
Filename : /Users/bernd/Music/Sol Gabetta - 2010 - Elgar Cello Concerto/01 - Elgar · Concerto for cello and orchestra in E minor, op. 85 - 1. Adagio - Moderato.flac
/Users/bernd/Music/Sol Gabetta - 2010 - Elgar Cello Concerto/01 - Elgar · Concerto for cello and orchestra in E minor, op. 85 - 1. Adagio - Moderato.mp3
Pre-gap length : 00:02:00
CRC32 hash (test run) : 0A4368F7
CRC32 hash : 0A4368F7
CRC32 hash (skip zero) : C13F3511
AccurateRip signature : 73DBBC2F
->Track not present in AccurateRip database.
Statistics
Read error : 0
Skipped (treated as error) : 0
Edge jitter error (maybe fixed) : 0
Atom jitter error (maybe fixed) : 0
Drift error (maybe fixed) : 0
Dropped bytes error (maybe fixed) : 0
Duplicated bytes error (maybe fixed) : 0
Inconsistency in error sectors : 0
Track 02
Filename : /Users/bernd/Music/Sol Gabetta - 2010 - Elgar Cello Concerto/02 - Elgar · Concerto for cello and orchestra in E minor, op. 85 - 2. Lento - Allegro molto.flac
/Users/bernd/Music/Sol Gabetta - 2010 - Elgar Cello Concerto/02 - Elgar · Concerto for cello and orchestra in E minor, op. 85 - 2. Lento - Allegro molto.mp3
CRC32 hash (test run) : 232C5E13
CRC32 hash : 232C5E13
CRC32 hash (skip zero) : D3828188
AccurateRip signature : 5C8A8ECA
->Track not present in AccurateRip database.
Statistics
Read error : 0
Skipped (treated as error) : 0
Edge jitter error (maybe fixed) : 0
Atom jitter error (maybe fixed) : 0
Drift error (maybe fixed) : 0
Dropped bytes error (maybe fixed) : 0
Duplicated bytes error (maybe fixed) : 0
Inconsistency in error sectors : 0
Track 03
Filename : /Users/bernd/Music/Sol Gabetta - 2010 - Elgar Cello Concerto/03 - Elgar · Concerto for cello and orchestra in E minor, op. 85 - 3. Adagio.flac
/Users/bernd/Music/Sol Gabetta - 2010 - Elgar Cello Concerto/03 - Elgar · Concerto for cello and orchestra in E minor, op. 85 - 3. Adagio.mp3
CRC32 hash (test run) : D011FD88
CRC32 hash : D011FD88
CRC32 hash (skip zero) : F0951C1E
AccurateRip signature : BFD7FC97
->Track not present in AccurateRip database.
Statistics
Read error : 0
Skipped (treated as error) : 0
Edge jitter error (maybe fixed) : 0
Atom jitter error (maybe fixed) : 0
Drift error (maybe fixed) : 0
Dropped bytes error (maybe fixed) : 0
Duplicated bytes error (maybe fixed) : 0
Inconsistency in error sectors : 0
Track 04
Filename : /Users/bernd/Music/Sol Gabetta - 2010 - Elgar Cello Concerto/04 - Elgar · Concerto for cello and orchestra in E minor, op. 85 - 4. Allegro - Moderato - Allegro ma non troppo.flac
/Users/bernd/Music/Sol Gabetta - 2010 - Elgar Cello Concerto/04 - Elgar · Concerto for cello and orchestra in E minor, op. 85 - 4. Allegro - Moderato - Allegro ma non troppo.mp3
CRC32 hash (test run) : EBF323B5
CRC32 hash : EBF323B5
CRC32 hash (skip zero) : FA89A1A9
AccurateRip signature : 9DC3178C
->Track not present in AccurateRip database.
Statistics
Read error : 0
Skipped (treated as error) : 0
Edge jitter error (maybe fixed) : 0
Atom jitter error (maybe fixed) : 0
Drift error (maybe fixed) : 0
Dropped bytes error (maybe fixed) : 0
Duplicated bytes error (maybe fixed) : 0
Inconsistency in error sectors : 0
Track 05
Filename : /Users/bernd/Music/Sol Gabetta - 2010 - Elgar Cello Concerto/05 - Elgar · Concerto for cello and orchestra in E minor, op. 85 - 5. Sospiri.flac
/Users/bernd/Music/Sol Gabetta - 2010 - Elgar Cello Concerto/05 - Elgar · Concerto for cello and orchestra in E minor, op. 85 - 5. Sospiri.mp3
CRC32 hash (test run) : FA3DCFE6
CRC32 hash : FA3DCFE6
CRC32 hash (skip zero) : 632F9475
AccurateRip signature : 4EC8064D
->Track not present in AccurateRip database.
Statistics
Read error : 0
Skipped (treated as error) : 0
Edge jitter error (maybe fixed) : 0
Atom jitter error (maybe fixed) : 0
Drift error (maybe fixed) : 0
Dropped bytes error (maybe fixed) : 0
Duplicated bytes error (maybe fixed) : 0
Inconsistency in error sectors : 0
Track 06
Filename : /Users/bernd/Music/Sol Gabetta - 2010 - Elgar Cello Concerto/06 - Elgar · Concerto for cello and orchestra in E minor, op. 85 - 6. Salut d'amour.flac
/Users/bernd/Music/Sol Gabetta - 2010 - Elgar Cello Concerto/06 - Elgar · Concerto for cello and orchestra in E minor, op. 85 - 6. Salut d'amour.mp3
CRC32 hash (test run) : C0907E01
CRC32 hash : C0907E01
CRC32 hash (skip zero) : B78B7580
AccurateRip signature : 40D875CC
->Track not present in AccurateRip database.
Statistics
Read error : 0
Skipped (treated as error) : 0
Edge jitter error (maybe fixed) : 0
Atom jitter error (maybe fixed) : 0
Drift error (maybe fixed) : 0
Dropped bytes error (maybe fixed) : 0
Duplicated bytes error (maybe fixed) : 0
Inconsistency in error sectors : 0
Track 07
Filename : /Users/bernd/Music/Sol Gabetta - 2010 - Elgar Cello Concerto/07 - Elgar · Concerto for cello and orchestra in E minor, op. 85 - 7. La capricieuse.flac
/Users/bernd/Music/Sol Gabetta - 2010 - Elgar Cello Concerto/07 - Elgar · Concerto for cello and orchestra in E minor, op. 85 - 7. La capricieuse.mp3
CRC32 hash (test run) : 73C7F651
CRC32 hash : 73C7F651
CRC32 hash (skip zero) : B0D95D92
AccurateRip signature : 2F852D2A
->Track not present in AccurateRip database.
Statistics
Read error : 0
Skipped (treated as error) : 0
Edge jitter error (maybe fixed) : 0
Atom jitter error (maybe fixed) : 0
Drift error (maybe fixed) : 0
Dropped bytes error (maybe fixed) : 0
Duplicated bytes error (maybe fixed) : 0
Inconsistency in error sectors : 0
Track 08
Filename : /Users/bernd/Music/Sol Gabetta - 2010 - Elgar Cello Concerto/08 - Dvorák · Waldesruh', op. 68 No. 5.flac
/Users/bernd/Music/Sol Gabetta - 2010 - Elgar Cello Concerto/08 - Dvorák · Waldesruh', op. 68 No. 5.mp3
CRC32 hash (test run) : 8B78A443
CRC32 hash : 8B78A443
CRC32 hash (skip zero) : E365E76A
AccurateRip signature : E29DFCFC
->Track not present in AccurateRip database.
Statistics
Read error : 0
Skipped (treated as error) : 0
Edge jitter error (maybe fixed) : 0
Atom jitter error (maybe fixed) : 0
Drift error (maybe fixed) : 0
Dropped bytes error (maybe fixed) : 0
Duplicated bytes error (maybe fixed) : 0
Inconsistency in error sectors : 0
Track 09
Filename : /Users/bernd/Music/Sol Gabetta - 2010 - Elgar Cello Concerto/09 - Dvorák · Rondo for cello and orchestra in G minor, op. 94.flac
/Users/bernd/Music/Sol Gabetta - 2010 - Elgar Cello Concerto/09 - Dvorák · Rondo for cello and orchestra in G minor, op. 94.mp3
CRC32 hash (test run) : 2A3EF717
CRC32 hash : 2A3EF717
CRC32 hash (skip zero) : 601D49B2
AccurateRip signature : 0446DBEA
->Track not present in AccurateRip database.
Statistics
Read error : 0
Skipped (treated as error) : 0
Edge jitter error (maybe fixed) : 0
Atom jitter error (maybe fixed) : 0
Drift error (maybe fixed) : 0
Dropped bytes error (maybe fixed) : 0
Duplicated bytes error (maybe fixed) : 0
Inconsistency in error sectors : 0
Track 10
Filename : /Users/bernd/Music/Sol Gabetta - 2010 - Elgar Cello Concerto/10 - Respighi · Adagio con variazioni.flac
/Users/bernd/Music/Sol Gabetta - 2010 - Elgar Cello Concerto/10 - Respighi · Adagio con variazioni.mp3
CRC32 hash (test run) : 6DE609EA
CRC32 hash : 6DE609EA
CRC32 hash (skip zero) : 1AA6D2D8
AccurateRip signature : 70A24E40
->Track not present in AccurateRip database.
Statistics
Read error : 0
Skipped (treated as error) : 0
Edge jitter error (maybe fixed) : 0
Atom jitter error (maybe fixed) : 0
Drift error (maybe fixed) : 0
Dropped bytes error (maybe fixed) : 0
Duplicated bytes error (maybe fixed) : 0
Inconsistency in error sectors : 0
No errors occurred
End of status report

Bonus CD

X Lossless Decoder version 20100412 (117.3)
XLD extraction logfile from 2010-04-16 07:54:36 +0200
Sol Gabetta / Elgar Bonus CD Vasks Gramata cellam
Used drive : BENQ DVD DD DW1650 (revision BCDC)
Use cdparanoia mode : YES (CDParanoia III 10.2 engine)
Disable audio cache : OK for the drive with cache less than 2750KB
Make use of C2 pointers : NO
Read offset correction : 102
Max retry count : 100
TOC of the extracted CD
Track | Start | Length | Start sector | End sector
---------------------------------------------------------
1 | 00:00:00 | 05:21:14 | 0 | 24088
2 | 05:21:14 | 07:27:23 | 24089 | 57636
Track 01
Filename : /Users/bernd/Music/Sol Gabetta - 2010 - Elgar Cello Concerto/01 - peteris vasks the book marcatissimo.flac
/Users/bernd/Music/Sol Gabetta - 2010 - Elgar Cello Concerto/01 - peteris vasks the book marcatissimo.mp3
Pre-gap length : 00:02:00
CRC32 hash (test run) : B409A541
CRC32 hash : B409A541
CRC32 hash (skip zero) : DE3618B6
AccurateRip signature : 09470989
->Track not present in AccurateRip database.
Statistics
Read error : 0
Skipped (treated as error) : 0
Edge jitter error (maybe fixed) : 0
Atom jitter error (maybe fixed) : 0
Drift error (maybe fixed) : 0
Dropped bytes error (maybe fixed) : 0
Duplicated bytes error (maybe fixed) : 0
Inconsistency in error sectors : 0
Track 02
Filename : /Users/bernd/Music/Sol Gabetta - 2010 - Elgar Cello Concerto/02 - dolcissimo.flac
/Users/bernd/Music/Sol Gabetta - 2010 - Elgar Cello Concerto/02 - dolcissimo.mp3
CRC32 hash (test run) : 45A892EC
CRC32 hash : 45A892EC
CRC32 hash (skip zero) : 8E28A851
AccurateRip signature : FCC86801
->Track not present in AccurateRip database.
Statistics
Read error : 0
Skipped (treated as error) : 0
Edge jitter error (maybe fixed) : 0
Atom jitter error (maybe fixed) : 0
Drift error (maybe fixed) : 0
Dropped bytes error (maybe fixed) : 0
Duplicated bytes error (maybe fixed) : 0
Inconsistency in error sectors : 0
No errors occurred
End of status report
[teatrix.ru].t12620.torrent 
Торрент: Зарегистрирован [ 2016-01-06 21:30 ] · FC6634F941109B6D2EA38A4DDB2B839A86ADFCF5

Скачать .torrent

Скачать

15 KB

Статус: проверено
Скачан: 0 раз
Размер: 345 MB
terms.php



Быстрый ответ

Имя:

      
Для отправки сообщений необходимо включить JavaScript
Показать сообщения:    

Текущее время: 10-Дек 15:44

Часовой пояс: UTC + 3


Вы можете начинать темы
Вы можете отвечать на сообщения
Вы не можете редактировать свои сообщения
Вы не можете удалять свои сообщения
Вы не можете голосовать в опросах
Вы не можете прикреплять файлы к сообщениям
Вы можете скачивать файлы