(Classical/Chamber/Quartet) Mozart: String Quartet No. 19 In C, K 465, 'Dissonance' • Schubert: String Quartet No. 13 In A Minor, Op. 29, D 804, 'Rosamunde' (Chiaroscuro Quartet) [Aparte] - 2011, FLAC (tracks+.cue) lossless


 

[Цитировать]

Chiaroscuro Quartet — Mozart • Schubert-Classical/Chamber/Quartet • Aparté • AP022 • 2011 • lossless • FLAC • tracks • 01:08:51 • what.cd • сканов нет-01-04. Wolfgang Amadeus Mozart: String Quartet No. 19 In C, K 465, 'Dissonance'
05-08. Franz Schubert: String Quartet No. 13 In A Minor, Op. 29, D 804, 'Rosamunde'
-Alina Ibragimova - violin || Pablo Hernan Benedi - violin || Emilie Hörnlund - viola || Claire Thirion - cello-Chiaroscuro Quartet был основан в 2005 году четырьмя студентами из Королевского колледжа музыки в Лондоне под руководством русской скрипачки Алины Ибрагимовой. Репертуар квартета ориентирован прежде всего на классический период от Гайдна до Шуберта. Исполняют на инструментах и смычках соответствующей эпохи.-Об альбоме:-

cue

REM GENRE Classical
REM DATE 2011
REM DISCID 71102308
REM COMMENT "ExactAudioCopy v1.0b3"
PERFORMER "Chiaroscuro Quartet"
TITLE "Mozart Dissonance Quartet, Schubert Rosamunde Quartet"
FILE "01 - Mozart- String Quartet #19 In C, K 465, ''Dissonance'' - 1. Adagio, Allegro.wav" WAVE
TRACK 01 AUDIO
TITLE "Mozart: String Quartet #19 In C, K 465, 'Dissonance' - 1. Adagio, Allegro"
PERFORMER "Chiaroscuro Quartet"
INDEX 01 00:00:00
TRACK 02 AUDIO
TITLE "Mozart: String Quartet #19 In C, K 465, 'Dissonance' - 2. Andante Cantabile"
PERFORMER "Chiaroscuro Quartet"
INDEX 00 13:30:73
FILE "02 - Mozart- String Quartet #19 In C, K 465, ''Dissonance'' - 2. Andante Cantabile.wav" WAVE
INDEX 01 00:00:00
TRACK 03 AUDIO
TITLE "Mozart: String Quartet #19 In C, K 465, 'Dissonance' - 3. Menuetto"
PERFORMER "Chiaroscuro Quartet"
INDEX 00 06:51:02
FILE "03 - Mozart- String Quartet #19 In C, K 465, ''Dissonance'' - 3. Menuetto.wav" WAVE
INDEX 01 00:00:00
TRACK 04 AUDIO
TITLE "Mozart: String Quartet #19 In C, K 465, 'Dissonance' - 4. Allegro Molto"
PERFORMER "Chiaroscuro Quartet"
INDEX 00 04:19:08
FILE "04 - Mozart- String Quartet #19 In C, K 465, ''Dissonance'' - 4. Allegro Molto.wav" WAVE
INDEX 01 00:00:00
TRACK 05 AUDIO
TITLE "Schubert: String Quartet #13 In A Minor, Op. 29, D 804, 'Rosamunde' - 1. Alle..."
PERFORMER "Chiaroscuro Quartet"
INDEX 00 10:20:59
FILE "05 - Schubert- String Quartet #13 In A Minor, Op. 29, D 804, ''Rosamunde'' - 1. Allegro Ma Non Troppo.wav" WAVE
INDEX 01 00:00:00
TRACK 06 AUDIO
TITLE "Schubert: String Quartet #13 In A Minor, Op. 29, D 804, 'Rosamunde' - 2. Andante"
PERFORMER "Chiaroscuro Quartet"
INDEX 00 12:31:73
FILE "06 - Schubert- String Quartet #13 In A Minor, Op. 29, D 804, ''Rosamunde'' - 2. Andante.wav" WAVE
INDEX 01 00:00:00
TRACK 07 AUDIO
TITLE "Schubert: String Quartet #13 In A Minor, Op. 29, D 804, 'Rosamunde' - 3. Menu..."
PERFORMER "Chiaroscuro Quartet"
INDEX 00 06:44:20
FILE "07 - Schubert- String Quartet #13 In A Minor, Op. 29, D 804, ''Rosamunde'' - 3. Menuetto- Allegretto.wav" WAVE
INDEX 01 00:00:00
TRACK 08 AUDIO
TITLE "Schubert: String Quartet #13 In A Minor, Op. 29, D 804, 'Rosamunde' - 4. Alle..."
PERFORMER "Chiaroscuro Quartet"
INDEX 00 06:42:68
FILE "08 - Schubert- String Quartet #13 In A Minor, Op. 29, D 804, ''Rosamunde'' - 4. Allegro Moderato.wav" WAVE
INDEX 01 00:00:00

log

Exact Audio Copy V1.0 beta 3 from 29. August 2011
EAC extraction logfile from 24. March 2012, 3:17
Chiaroscuro Quartet / Mozart Dissonance Quartet, Schubert Rosamunde Quartet
Used drive : PLEXTOR DVDR PX-860A Adapter: 0 ID: 0
Read mode : Secure
Utilize accurate stream : Yes
Defeat audio cache : Yes
Make use of C2 pointers : No
Read offset correction : 96
Overread into Lead-In and Lead-Out : No
Fill up missing offset samples with silence : Yes
Delete leading and trailing silent blocks : No
Null samples used in CRC calculations : Yes
Used interface : Native Win32 interface for Win NT & 2000
Gap handling : Appended to previous track
Used output format : User Defined Encoder
Selected bitrate : 1024 kBit/s
Quality : High
Add ID3 tag : No
Command line compressor : C:\Program Files\Exact Audio Copy 3\Flac\flac.exe
Additional command line options : -8 -V -T "ARTIST=%artist%" -T "TITLE=%title%" -T "ALBUM=%albumtitle%" -T "DATE=%year%" -T "TRACKNUMBER=%tracknr%" -T "GENRE=%genre%" -T "PERFORMER=%albuminterpret%" -T "COMPOSER=%composer%" %haslyrics%--tag-from-file=LYRICS="%lyricsfile%"%haslyrics% -T "ALBUMARTIST=%albumartist%" -T "DISCNUMBER=%cdnumber%" -T "TOTALDISCS=%totalcds%" -T "TOTALTRACKS=%numtracks%" -T "COMMENT=%comment%" %source% -o %dest%
TOC of the extracted CD
Track | Start | Length | Start sector | End sector
---------------------------------------------------------
1 | 0:00.00 | 13:32.73 | 0 | 60972
2 | 13:32.73 | 6:53.02 | 60973 | 91949
3 | 20:26.00 | 4:21.08 | 91950 | 111532
4 | 24:47.08 | 10:22.59 | 111533 | 158241
5 | 35:09.67 | 12:33.73 | 158242 | 214789
6 | 47:43.65 | 6:46.20 | 214790 | 245259
7 | 54:30.10 | 6:44.68 | 245260 | 275627
8 | 61:15.03 | 7:36.46 | 275628 | 309873
Track 1
Filename I:\DL\Chiaroscuro Quartet - Mozart Dissonance Quartet, Schubert Rosamunde Quartet (2011) [FLAC]\01 - Mozart- String Quartet #19 In C, K 465, ''Dissonance'' - 1. Adagio, Allegro.wav
Pre-gap length 0:00:02.00
Peak level 97.7 %
Extraction speed 5.2 X
Track quality 100.0 %
Test CRC C24A7B07
Copy CRC C24A7B07
Track not present in AccurateRip database
Copy OK
Track 2
Filename I:\DL\Chiaroscuro Quartet - Mozart Dissonance Quartet, Schubert Rosamunde Quartet (2011) [FLAC]\02 - Mozart- String Quartet #19 In C, K 465, ''Dissonance'' - 2. Andante Cantabile.wav
Pre-gap length 0:00:02.00
Peak level 56.8 %
Extraction speed 5.9 X
Track quality 100.0 %
Test CRC E5B93115
Copy CRC E5B93115
Track not present in AccurateRip database
Copy OK
Track 3
Filename I:\DL\Chiaroscuro Quartet - Mozart Dissonance Quartet, Schubert Rosamunde Quartet (2011) [FLAC]\03 - Mozart- String Quartet #19 In C, K 465, ''Dissonance'' - 3. Menuetto.wav
Pre-gap length 0:00:02.00
Peak level 75.7 %
Extraction speed 6.1 X
Track quality 100.0 %
Test CRC 73F75CD4
Copy CRC 73F75CD4
Track not present in AccurateRip database
Copy OK
Track 4
Filename I:\DL\Chiaroscuro Quartet - Mozart Dissonance Quartet, Schubert Rosamunde Quartet (2011) [FLAC]\04 - Mozart- String Quartet #19 In C, K 465, ''Dissonance'' - 4. Allegro Molto.wav
Pre-gap length 0:00:02.00
Peak level 97.7 %
Extraction speed 7.1 X
Track quality 100.0 %
Test CRC 54D4EC13
Copy CRC 54D4EC13
Track not present in AccurateRip database
Copy OK
Track 5
Filename I:\DL\Chiaroscuro Quartet - Mozart Dissonance Quartet, Schubert Rosamunde Quartet (2011) [FLAC]\05 - Schubert- String Quartet #13 In A Minor, Op. 29, D 804, ''Rosamunde'' - 1. Allegro Ma Non Troppo.wav
Pre-gap length 0:00:02.00
Peak level 97.7 %
Extraction speed 7.6 X
Track quality 99.9 %
Test CRC 231CF4D8
Copy CRC 231CF4D8
Track not present in AccurateRip database
Copy OK
Track 6
Filename I:\DL\Chiaroscuro Quartet - Mozart Dissonance Quartet, Schubert Rosamunde Quartet (2011) [FLAC]\06 - Schubert- String Quartet #13 In A Minor, Op. 29, D 804, ''Rosamunde'' - 2. Andante.wav
Pre-gap length 0:00:02.00
Peak level 68.9 %
Extraction speed 8.1 X
Track quality 100.0 %
Test CRC 4464E4CF
Copy CRC 4464E4CF
Track not present in AccurateRip database
Copy OK
Track 7
Filename I:\DL\Chiaroscuro Quartet - Mozart Dissonance Quartet, Schubert Rosamunde Quartet (2011) [FLAC]\07 - Schubert- String Quartet #13 In A Minor, Op. 29, D 804, ''Rosamunde'' - 3. Menuetto- Allegretto.wav
Pre-gap length 0:00:02.00
Peak level 82.4 %
Extraction speed 8.5 X
Track quality 100.0 %
Test CRC BEC4593B
Copy CRC BEC4593B
Track not present in AccurateRip database
Copy OK
Track 8
Filename I:\DL\Chiaroscuro Quartet - Mozart Dissonance Quartet, Schubert Rosamunde Quartet (2011) [FLAC]\08 - Schubert- String Quartet #13 In A Minor, Op. 29, D 804, ''Rosamunde'' - 4. Allegro Moderato.wav
Pre-gap length 0:00:02.00
Peak level 97.7 %
Extraction speed 8.9 X
Track quality 100.0 %
Test CRC 9178DD30
Copy CRC 9178DD30
Track not present in AccurateRip database
Copy OK
None of the tracks are present in the AccurateRip database
No errors occurred
End of status report
---- CUETools DB Plugin V2.1.3
[CTDB TOCID: LiT11ewf.AoOiCguBjVlMN7z82w-] found, Submit result: LiT11ewf.AoOiCguBjVlMN7z82w- has been confirmed
[0ce4cecd] (1/1) Accurately ripped
==== Log checksum 597D3B286C94F0DF3AAF868C3F96A9A2503A607BC256C912D2A5223C4528C0D3 ====



Показать сообщения:    

Текущее время: 11-Дек 09:13

Часовой пояс: UTC + 3


Вы не можете начинать темы
Вы не можете отвечать на сообщения
Вы не можете редактировать свои сообщения
Вы не можете удалять свои сообщения
Вы не можете голосовать в опросах
Вы не можете прикреплять файлы к сообщениям
Вы не можете скачивать файлы