(Classical/Chamber/Quartet) Beethoven: String Quartet In F Minor No. 11 • Mozart: String Quartet In E Flat Major No.16; Adagio and Fugue, K. 546 (Chiaroscuro Quartet) [Aparte] - 2013, FLAC (tracks+.cue) lossless


 

[Цитировать]

Chiaroscuro Quartet — Beethoven • Mozart-Classical/Chamber/Quartet • Aparté • AP051 • 2013 • lossless • FLAC • tracks • 00:57:23 • what.cd • сканы-01-04. Ludwig van Beethoven: String Quartet In F Minor No. 11, Op.95 'Quartetto Serioso'
05-06. Wolfgang Amadeus Mozart: Adagio And Fugue In C Minor, K.546
07-10. Wolfgang Amadeus Mozart: String Quartet In E Flat Major No.16, K.428
-Alina Ibragimova - violin || Pablo Hernan Benedi - violin || Emilie Hörnlund - viola || Claire Thirion - cello-Chiaroscuro Quartet был основан в 2005 году четырьмя студентами из Королевского колледжа музыки в Лондоне под руководством русской скрипачки Алины Ибрагимовой. Репертуар квартета ориентирован прежде всего на классический период от Гайдна до Шуберта. Исполняют на инструментах и смычках соответствующей эпохи.-

cue

REM GENRE Classical
REM DATE 2013
REM DISCID 860D730A
REM COMMENT "ExactAudioCopy v1.0b3"
PERFORMER "Chiaroscuro Quartet"
TITLE "Beethoven - Mozart"
FILE "01 - String Quartet In F Minor No. 11, Op.95 'Quartetto Serioso' - Allegro Con Brio.wav" WAVE
TRACK 01 AUDIO
TITLE "String Quartet In F Minor No. 11, Op.95 'Quartetto Serioso' - Allegro Con Brio"
PERFORMER "Chiaroscuro Quartet"
INDEX 01 00:00:00
FILE "02 - String Quartet F-Minor, Op.95 'Quartetto Serioso' - Allegretto Ma Non Troppo.wav" WAVE
TRACK 02 AUDIO
TITLE "String Quartet F-Minor, Op.95 'Quartetto Serioso' - Allegretto Ma Non Troppo"
PERFORMER "Chiaroscuro Quartet"
INDEX 01 00:00:00
FILE "03 - String Quartet In F Minor No. 11, Op.95 'Quartetto Serioso' - Allegro Assa Vivace Ma Serioso.wav" WAVE
TRACK 03 AUDIO
TITLE "String Quartet In F Minor No. 11, Op.95 'Quartetto Serioso' - Allegro Assa Vi..."
PERFORMER "Chiaroscuro Quartet"
INDEX 01 00:00:00
FILE "04 - String Quartet In F Minor No. 11, Op.95 'Quartetto Serioso' - Larghetto Espressivo.wav" WAVE
TRACK 04 AUDIO
TITLE "String Quartet In F Minor No. 11, Op.95 'Quartetto Serioso' - Larghetto Espre..."
PERFORMER "Chiaroscuro Quartet"
INDEX 01 00:00:00
FILE "05 - Adagio And Fugue In C Minor, K.546 - Adagio.wav" WAVE
TRACK 05 AUDIO
TITLE "Adagio And Fugue In C Minor, K.546 - Adagio"
PERFORMER "Chiaroscuro Quartet"
INDEX 01 00:00:00
FILE "06 - Adagio And Fugue In C Minor, K.546 - Fugue.wav" WAVE
TRACK 06 AUDIO
TITLE "Adagio And Fugue In C Minor, K.546 - Fugue"
PERFORMER "Chiaroscuro Quartet"
INDEX 01 00:00:00
FILE "07 - String Quartet In E Flat Major No.16, K.428 - Allegro Non Troppo.wav" WAVE
TRACK 07 AUDIO
TITLE "String Quartet In E Flat Major No.16, K.428 - Allegro Non Troppo"
PERFORMER "Chiaroscuro Quartet"
INDEX 01 00:00:00
FILE "08 - String Quartet In E Flat Major No.16, K.428 - Andante Con Moto.wav" WAVE
TRACK 08 AUDIO
TITLE "String Quartet In E Flat Major No.16, K.428 - Andante Con Moto"
PERFORMER "Chiaroscuro Quartet"
INDEX 01 00:00:00
FILE "09 - String Quartet In E Flat Major No.16, K.428 - Menuet- Allegro Et Trio.wav" WAVE
TRACK 09 AUDIO
TITLE "String Quartet In E Flat Major No.16, K.428 - Menuet: Allegro Et Trio"
PERFORMER "Chiaroscuro Quartet"
INDEX 01 00:00:00
FILE "10 - String Quartet In E Flat Major No.16, K.428 - Allegro Vivace.wav" WAVE
TRACK 10 AUDIO
TITLE "String Quartet In E Flat Major No.16, K.428 - Allegro Vivace"
PERFORMER "Chiaroscuro Quartet"
INDEX 01 00:00:00

EAC

Exact Audio Copy V1.0 beta 3 from 29. August 2011
EAC extraction logfile from 10. September 2013, 7:30
Chiaroscuro Quartet / Beethoven - Mozart
Used drive : PLEXTOR DVDR PX-860A Adapter: 0 ID: 0
Read mode : Secure
Utilize accurate stream : Yes
Defeat audio cache : Yes
Make use of C2 pointers : No
Read offset correction : 96
Overread into Lead-In and Lead-Out : No
Fill up missing offset samples with silence : Yes
Delete leading and trailing silent blocks : No
Null samples used in CRC calculations : Yes
Used interface : Native Win32 interface for Win NT & 2000
Gap handling : Appended to previous track
Used output format : User Defined Encoder
Selected bitrate : 1024 kBit/s
Quality : High
Add ID3 tag : No
Command line compressor : C:\Program Files\Exact Audio Copy\Flac\flac.exe
Additional command line options : -8 -V -T "ARTIST=%artist%" -T "TITLE=%title%" -T "ALBUM=%albumtitle%" -T "DATE=%year%" -T "TRACKNUMBER=%tracknr%" -T "TOTALTRACKS=%numtracks%" -T "GENRE=%genre%" -T "ALBUMARTIST=%albumartist%" -T "ALBUM ARTIST=%albumartist%" -T "COMMENT=EAC Secure Mode, Test & Copy, AccurateRip, FLAC -8" %source%
TOC of the extracted CD
Track | Start | Length | Start sector | End sector
---------------------------------------------------------
1 | 0:00.00 | 4:57.30 | 0 | 22304
2 | 4:57.30 | 6:57.13 | 22305 | 53592
3 | 11:54.43 | 4:59.42 | 53593 | 76059
4 | 16:54.10 | 5:25.24 | 76060 | 100458
5 | 22:19.34 | 3:00.31 | 100459 | 113989
6 | 25:19.65 | 4:24.36 | 113990 | 133825
7 | 29:44.26 | 7:30.60 | 133826 | 167635
8 | 37:15.11 | 8:51.61 | 167636 | 207521
9 | 46:06.72 | 5:22.22 | 207522 | 231693
10 | 51:29.19 | 5:54.20 | 231694 | 258263
Track 1
Filename O:\DL\Chiaroscuro Quartet - Beethoven - Mozart (2013) [FLAC]\01 - String Quartet In F Minor No. 11, Op.95 'Quartetto Serioso' - Allegro Con Brio.wav
Pre-gap length 0:00:02.00
Peak level 51.4 %
Extraction speed 4.4 X
Track quality 100.0 %
Test CRC B95DF11F
Copy CRC B95DF11F
Accurately ripped (confidence 3) [3B945A24] (AR v2)
Copy OK
Track 2
Filename O:\DL\Chiaroscuro Quartet - Beethoven - Mozart (2013) [FLAC]\02 - String Quartet F-Minor, Op.95 'Quartetto Serioso' - Allegretto Ma Non Troppo.wav
Peak level 33.5 %
Extraction speed 5.2 X
Track quality 100.0 %
Test CRC 49500914
Copy CRC 49500914
Accurately ripped (confidence 3) [06216B4F] (AR v2)
Copy OK
Track 3
Filename O:\DL\Chiaroscuro Quartet - Beethoven - Mozart (2013) [FLAC]\03 - String Quartet In F Minor No. 11, Op.95 'Quartetto Serioso' - Allegro Assa Vivace Ma Serioso.wav
Peak level 49.1 %
Extraction speed 5.6 X
Track quality 100.0 %
Test CRC 86655C99
Copy CRC 86655C99
Accurately ripped (confidence 3) [C244F7A7] (AR v2)
Copy OK
Track 4
Filename O:\DL\Chiaroscuro Quartet - Beethoven - Mozart (2013) [FLAC]\04 - String Quartet In F Minor No. 11, Op.95 'Quartetto Serioso' - Larghetto Espressivo.wav
Peak level 45.0 %
Extraction speed 6.0 X
Track quality 100.0 %
Test CRC 4E83D135
Copy CRC 4E83D135
Accurately ripped (confidence 3) [9A517F5D] (AR v2)
Copy OK
Track 5
Filename O:\DL\Chiaroscuro Quartet - Beethoven - Mozart (2013) [FLAC]\05 - Adagio And Fugue In C Minor, K.546 - Adagio.wav
Peak level 46.6 %
Extraction speed 5.8 X
Track quality 100.0 %
Test CRC F8D77B4E
Copy CRC F8D77B4E
Accurately ripped (confidence 3) [DADF3695] (AR v2)
Copy OK
Track 6
Filename O:\DL\Chiaroscuro Quartet - Beethoven - Mozart (2013) [FLAC]\06 - Adagio And Fugue In C Minor, K.546 - Fugue.wav
Peak level 55.5 %
Extraction speed 6.3 X
Track quality 100.0 %
Test CRC 8FE2E99F
Copy CRC 8FE2E99F
Accurately ripped (confidence 3) [C7DB1398] (AR v2)
Copy OK
Track 7
Filename O:\DL\Chiaroscuro Quartet - Beethoven - Mozart (2013) [FLAC]\07 - String Quartet In E Flat Major No.16, K.428 - Allegro Non Troppo.wav
Peak level 49.3 %
Extraction speed 7.2 X
Track quality 100.0 %
Test CRC 872BB6EA
Copy CRC 872BB6EA
Accurately ripped (confidence 3) [2D26643E] (AR v2)
Copy OK
Track 8
Filename O:\DL\Chiaroscuro Quartet - Beethoven - Mozart (2013) [FLAC]\08 - String Quartet In E Flat Major No.16, K.428 - Andante Con Moto.wav
Peak level 33.2 %
Extraction speed 6.8 X
Track quality 99.9 %
Test CRC 933EDEA9
Copy CRC 933EDEA9
Accurately ripped (confidence 3) [3F92D40C] (AR v2)
Copy OK
Track 9
Filename O:\DL\Chiaroscuro Quartet - Beethoven - Mozart (2013) [FLAC]\09 - String Quartet In E Flat Major No.16, K.428 - Menuet- Allegro Et Trio.wav
Peak level 47.0 %
Extraction speed 7.5 X
Track quality 100.0 %
Test CRC 8337B6B2
Copy CRC 8337B6B2
Accurately ripped (confidence 3) [F3309E6E] (AR v2)
Copy OK
Track 10
Filename O:\DL\Chiaroscuro Quartet - Beethoven - Mozart (2013) [FLAC]\10 - String Quartet In E Flat Major No.16, K.428 - Allegro Vivace.wav
Peak level 29.4 %
Extraction speed 7.4 X
Track quality 99.9 %
Test CRC C251BA08
Copy CRC C251BA08
Accurately ripped (confidence 3) [29A373F4] (AR v2)
Copy OK
All tracks accurately ripped
No errors occurred
End of status report
---- CUETools DB Plugin V2.1.3
[CTDB TOCID: 3L5uWV3Nk.1UaKdVO279QN9sfoQ-] disk not present in database, Submit result: 3L5uWV3Nk.1UaKdVO279QN9sfoQ- has been uploaded
==== Log checksum 00AEE88AD090158DC5C77EA7122E0C79B3CD9AB3FA28DC559AAEBD0E0AC02945 ====



Показать сообщения:    

Текущее время: 09-Дек 22:29

Часовой пояс: UTC + 3


Вы не можете начинать темы
Вы не можете отвечать на сообщения
Вы не можете редактировать свои сообщения
Вы не можете удалять свои сообщения
Вы не можете голосовать в опросах
Вы не можете прикреплять файлы к сообщениям
Вы не можете скачивать файлы