Жила-была я, Вероника / Era Uma Vez Eu, Verônica (Марсело Гомес / Marcelo Gomes) [2012, Бразилия, Франция, драма, DVDRip] VO (Павел Морозов aka PashaUp) + Sub Rus + Original Fre


Статистика раздачи [Обновить пиров]
Размер:  1.19 GB   |    Зарегистрирован:  10 месяцев 29 дней   |    Скачан:  0 раз

Полного источника не было: Никогда

 
   
 
 
 

[Цитировать]

Жила-была я, Вероника / Era Uma Vez Eu, Verônica
Страна: Бразилия, Франция
Жанр: драма
Год выпуска: 2012
Продолжительность: 01:31:22
Перевод: Одноголосый закадровый Павел Морозов aka PashaUp по переводу creo140
Cубтитры: русские
Оригинальная аудиодорожка: португальский
Режиссер: Марсело Гомес / Marcelo Gomes
В ролях: Маевэ Жинкингз, Эрмила Гуэдес, Джоао Мигель, Жулио Роша, Наталия Са, Антеро Монтенегро, Мадалена Ассиоли, Карина Бур
Описание: Фильм открывает бесстыдная и невинная, живая, естественная как вода и воздух сцена группового секса на океанском пляже. Но это — грёза, фантазия, не имеющая прямого отношения к существованию заглавной героини, ведущей скромную и спокойную жизнь со стариком-отцом. Нет, в её жизни есть мужчина, есть секс, есть мечта — исцелять людей, и язык не повернётся назвать эту жизнь заурядной или бессмысленной...
Сан-Себастьян, 2012 год
Победитель: Приз программы «Горизонты» - специальное упоминание

Сэмпл: http://multi-up.com/1082865
Качество видео: DVDRip
Формат видео: AVI
Видео: 608x336 (1.81:1), 23.976 fps, XviD build 65 ~1476 kbps avg, 0.30 bit/pixel
Аудио: 48 kHz, AC3 Dolby Digital, 2/0 (L,R) ch, ~192 kbps (Rus)
Аудио 2: 48 kHz, AC3 Dolby Digital, 2/0 (L,R) ch, ~192 kbps (Por - отдельным файлом)
Формат субтитров: softsub (SRT)
Доп. информация о субтитрах: creo140

MediaInfo

Общее
Полное имя : E:\Era.Uma.Vez.Eu.Veronica_2012.DVDRip\Era.Uma.Vez.Eu.Veronica_2012.DVDRip.avi
Формат : AVI
Формат/Информация : Audio Video Interleave
Размер файла : 1,07 Гбайт
Продолжительность : 1 ч. 31 м.
Общий поток : 1678 Кбит/сек
Программа кодирования : VirtualDubModRus 1.5.10.2 (build 2542/release)
Библиотека кодирования : VirtualDubMod build 2542/release
Видео
Идентификатор : 0
Формат : MPEG-4 Visual
Профиль формата : Advanced Simple@L5
Параметр BVOP формата : 1
Параметр QPel формата : Нет
Параметр GMC формата : Без точки перехода
Параметр матрицы формата : Default (MPEG)
Идентификатор кодека : XVID
Идентификатор кодека/Подсказка : XviD
Продолжительность : 1 ч. 31 м.
Битрейт : 1476 Кбит/сек
Ширина : 608 пикселей
Высота : 336 пикселей
Соотношение сторон : 16:10
Соотношение сторон в оригинале : 16:9
Частота кадров : 23,976 кадра/сек
Цветовое пространство : YUV
Субдискретизация насыщенности : 4:2:0
Битовая глубина : 8 бит
Тип развёртки : Прогрессивная
Метод сжатия : С потерями
Бит/(Пиксели*Кадры) : 0.301
Размер потока : 965 Мбайт (88%)
Библиотека кодирования : XviD 65
Аудио
Идентификатор : 1
Формат : AC-3
Формат/Информация : Audio Coding 3
Расширение режима : CM (complete main)
Параметр Endianness формата : Big
Идентификатор кодека : 2000
Продолжительность : 1 ч. 31 м.
Вид битрейта : Постоянный
Битрейт : 192 Кбит/сек
Каналы : 2 канала
Расположение каналов : Front: L R
Частота : 48,0 КГц
Метод сжатия : С потерями
Размер потока : 125 Мбайт (11%)
Выравнивание : Разделение по промежуткам
Продолжительность промежутка : 42 мс. (1,00 видеокадр)
Время предзагрузки промежутка : 500 мс.

Скриншот c названием фильма

[teatrix.ru].t12628.torrent 
Торрент: Зарегистрирован [ 2016-01-07 01:50 ] · 00FE61A77B54CBB58EB8950C7FA73E3E27B662D7

Скачать .torrent

Скачать

13 KB

Статус: проверено
Скачан: 0 раз
Размер: 1.19 GB
terms.php



Быстрый ответ

Имя:

      
Для отправки сообщений необходимо включить JavaScript
Показать сообщения:    

Текущее время: 05-Дек 05:30

Часовой пояс: UTC + 3


Вы можете начинать темы
Вы можете отвечать на сообщения
Вы не можете редактировать свои сообщения
Вы не можете удалять свои сообщения
Вы не можете голосовать в опросах
Вы не можете прикреплять файлы к сообщениям
Вы можете скачивать файлы