Сказка про царя Гороха, царевну Марью, Емелю и волшебную щуку (Михаил Салес) [2011 г., Сказка, мультспектакль, WEB-DLRip] Калининградский областной драматический театр


 

[Цитировать]

Сказка про царя Гороха, царевну Марью, Емелю и волшебную щуку Название театра: Калининградский областной драматический театр.
Год выпуска: 2011.
Жанр: Сказка, мультспектакль.
Продолжительность: 00:49:24.
Режиссер-постановщик: народный артист России Михаил Салес.
Действующие лица и исполнители:
Демьян - Алексей Переберин,
Мать - заслуженная артистка России Наталья Высоцкая,
Воевода - заслуженный артист России Василий Швечков (ст.),
Царь Горох - Геннадий Марьев,
Царевна Марья - Елена Носырева,
Емеля - Василий Швечков (мл.),
а также артисты театра: Сергей Борисов, Александр Федоренко, Людмила Козлова, Анатолий Лукин, Светлана Малиновская, Юрий Харламбов, заслуженная артистка России Надежда Гайдар, Татьяна Рогачева, Антон Захаров, Максим Пацерин, Максим Махинов, Геннадий Филиппович, Виталий Баженов, Валерий Лазарев.
О спектакле:
Спектакль по мотивам русских народных сказок поставлен в партнерстве с киностудией "Союзмультфильм".
Дополнительная информация:
Страна: Россия .
Художник-постановщик: Владимир Козлов.
Композитор: заслуженный деятель искусств России Аркадий Фельдман.
Художник по костюмам: Татьяна Старикова.
Балетмейстер: Марина Хайруллина.
Премьера спектакля состоялась 22 декабря 2010 года.

О спектакле.
Релиз
Рип sharky.

Качество видео:...WEB-DLRip
Формат:.................AVI
Видео:..704x400 (1.76:1), 25 fps, XviD build 47 ~1549 kbps avg, 0.22 bit/pixel
Аудио:..44.100 kHz, MPEG Layer 3, 2 ch, ~128.00 kbps avg

Отчет MI

Общее
Полное имя : Skazka.pro.tsarya.Goroha_Kaliningradskij.ODT.2011.XviD.WEB-DLRip.fenixclub.avi
Format : AVI
Format/Info : Audio Video Interleave
File size : 596 MiB
Duration : 49mn 23s
Overall bit rate : 1 687 Kbps
Writing application : VirtualDubMod 1.5.10.2 (build 2540/release)
Writing library : VirtualDubMod build 2540/release
Video
ID : 0
Format : MPEG-4 Visual
Format profile : Advanced Simple@L5
Format settings, BVOP : 1
Format settings, QPel : No
Format settings, GMC : No warppoints
Format settings, Matrix : Default (H.263)
Codec ID : XVID
Codec ID/Hint : XviD
Duration : 49mn 23s
Bit rate : 1 550 Kbps
Width : 704 pixels
Height : 400 pixels
Display aspect ratio : 16:9
Frame rate : 25.000 fps
Color space : YUV
Chroma subsampling : 4:2:0
Bit depth : 8 bits
Scan type : Progressive
Compression mode : Lossy
Bits/(Pixel*Frame) : 0.220
Stream size : 548 MiB (92%)
Writing library : XviD 1.2.0.dev47 (UTC 2006-11-01)
Audio
ID : 1
Format : MPEG Audio
Format version : Version 1
Format profile : Layer 3
Codec ID : 55
Codec ID/Hint : MP3
Duration : 49mn 23s
Bit rate mode : Constant
Bit rate : 128 Kbps
Channel(s) : 2 channels
Sampling rate : 44.1 KHz
Compression mode : Lossy
Stream size : 45.2 MiB (8%)
Alignment : Split accross interleaves
Interleave, duration : 40 ms (1.00 video frame)
Interleave, preload duratio : 500 ms
Writing library : LAME3.97
Encoding settings : -m s -V 4 -q 2 -lowpass 17 -b 128

Скриншоты


Альтернативный хост





Показать сообщения:    

Текущее время: 11-Дек 05:23

Часовой пояс: UTC + 3


Вы не можете начинать темы
Вы не можете отвечать на сообщения
Вы не можете редактировать свои сообщения
Вы не можете удалять свои сообщения
Вы не можете голосовать в опросах
Вы не можете прикреплять файлы к сообщениям
Вы не можете скачивать файлы