(Classical/Choral) Voces8 — Eventide [John Williams, Britten, Bruckner, etc.] - 2014, FLAC (tracks+.cue) lossless


Статистика раздачи [Обновить пиров]
Размер:  270 MB   |    Зарегистрирован:  10 месяцев 29 дней   |    Скачан:  1 раз

Полного источника не было: 5 месяцев 5 дней

 
   
 
 
 

[Цитировать]

Voces8 — Eventide-Classical/Choral • Decca • № 4785703 • 2014 • lossless • FLAC • tracks+.cue • 01:04:29 • what.cd • сканы-01. Thomas Tallis: Te Lucis Ante Terminum, Festal
02. John Williams: Hymn To The Fallen
03. Patrick Hawes: Reflexionem
04. Emeli Sandé, Shahid Khan: Where I Sleep
05. Eric Whitacre: The Seal Lullaby
06. Ola Gjeilo: Second Eve
07. Patrick Hawes: Quanta Qualia
08. Kate Rusby: Underneath The Stars
09. Paul Mealor: Locus Iste
10. Benjamin Britten: Corpus Christi Carol
11. Karl Jenkins: Benedictus (1824 - 1896)
12. Anton Bruckner: Os iusti
13. Traditional: Steal Away
14. Franz Biebl: Ave Maria
15. Morten Lauridsen: O Magnum mysterium
16. Anonymous: Te Lucis Terminum, Pentecostal Tone
-VOCES8-Об альбоме:-

cue

REM GENRE Classical
REM DATE 2014
REM DISCID FA0F1D10
REM COMMENT "ExactAudioCopy v1.0b2"
CATALOG 0028947857037
PERFORMER "Voces8"
TITLE "Eventide"
FILE "01 -Thomas Tallis - Te lucis ante terminum.wav" WAVE
TRACK 01 AUDIO
TITLE "Te lucis ante terminum"
PERFORMER "Thomas Tallis"
ISRC GBF071302800
INDEX 01 00:00:00
FILE "02 -John Williams - Hymn to the Fallen.wav" WAVE
TRACK 02 AUDIO
TITLE "Hymn to the Fallen"
PERFORMER "John Williams"
ISRC GBF071302830
INDEX 01 00:00:00
FILE "03 -Patrick Hawes - Reflexionem.wav" WAVE
TRACK 03 AUDIO
TITLE "Reflexionem"
PERFORMER "Patrick Hawes"
ISRC GBF071302840
INDEX 01 00:00:00
FILE "04 -Emeli Sandй & Shahid Khan - Where I sleep.wav" WAVE
TRACK 04 AUDIO
TITLE "Where I sleep"
PERFORMER "Emeli Sandй & Shahid Khan"
ISRC GBF071302820
INDEX 01 00:00:00
FILE "05 -Eric Whitacre - The Seal Lullaby.wav" WAVE
TRACK 05 AUDIO
TITLE "The Seal Lullaby"
PERFORMER "Eric Whitacre"
ISRC GBF071302810
INDEX 01 00:00:00
FILE "06 -Ola Gjeilo - Second Eve.wav" WAVE
TRACK 06 AUDIO
TITLE "Second Eve"
PERFORMER "Ola Gjeilo"
ISRC GBF071302940
INDEX 01 00:00:00
FILE "07 -Patrick Hawes - Quanta qualia.wav" WAVE
TRACK 07 AUDIO
TITLE "Quanta qualia"
PERFORMER "Patrick Hawes"
ISRC GBF071302910
INDEX 01 00:00:00
FILE "08 -Kate Rusby - Underneath the stars.wav" WAVE
TRACK 08 AUDIO
TITLE "Underneath the stars"
PERFORMER "Kate Rusby"
ISRC GBF071302870
INDEX 01 00:00:00
FILE "09 -Paul Mealor - Locus iste.wav" WAVE
TRACK 09 AUDIO
TITLE "Locus iste"
PERFORMER "Paul Mealor"
ISRC GBF071302880
INDEX 01 00:00:00
FILE "10 -Benjamin Britten - Corpus Christi Carol.wav" WAVE
TRACK 10 AUDIO
TITLE "Corpus Christi Carol"
PERFORMER "Benjamin Britten"
ISRC GBF071302890
INDEX 01 00:00:00
FILE "11 -Karl Jenkins - Benedictus.wav" WAVE
TRACK 11 AUDIO
TITLE "Benedictus"
PERFORMER "Karl Jenkins"
ISRC GBF071302860
INDEX 01 00:00:00
FILE "12 -Anton Bruckner - Os justi.wav" WAVE
TRACK 12 AUDIO
TITLE "Os justi"
PERFORMER "Anton Bruckner"
ISRC GBF071302850
INDEX 01 00:00:00
FILE "13 -Trad. - Steal away.wav" WAVE
TRACK 13 AUDIO
TITLE "Steal away"
PERFORMER "Trad."
ISRC GBF071302920
INDEX 01 00:00:00
FILE "14 -Franz Biebl - Ave Maria.wav" WAVE
TRACK 14 AUDIO
TITLE "Ave Maria"
PERFORMER "Franz Biebl"
ISRC GBF071302930
INDEX 01 00:00:00
FILE "15 -Morten Lauridsen - O magnum mysterium.wav" WAVE
TRACK 15 AUDIO
TITLE "O magnum mysterium"
PERFORMER "Morten Lauridsen"
ISRC GBF071302900
INDEX 01 00:00:00
FILE "16 -Anon. - Te lucis ante terminum.wav" WAVE
TRACK 16 AUDIO
TITLE "Te lucis ante terminum"
PERFORMER "Anon."
ISRC GBF071302950
INDEX 01 00:00:00

EAC

Exact Audio Copy V1.0 beta 2 from 29. April 2011
EAC extraction logfile from 28. July 2015, 12:02
Voces8 / Eventide
Used drive : HL-DT-STDVDRWBD GBC-H20N Adapter: 0 ID: 1
Read mode : Secure
Utilize accurate stream : Yes
Defeat audio cache : Yes
Make use of C2 pointers : No
Read offset correction : 667
Overread into Lead-In and Lead-Out : No
Fill up missing offset samples with silence : Yes
Delete leading and trailing silent blocks : No
Null samples used in CRC calculations : Yes
Used interface : Native Win32 interface for Win NT & 2000
Gap handling : Appended to previous track
Used output format : User Defined Encoder
Selected bitrate : 1024 kBit/s
Quality : High
Add ID3 tag : No
Command line compressor : C:\Program Files (x86)\Exact Audio Copy\Flac\flac.exe
Additional command line options : -8 -V -T "ARTIST=%artist%" -T "TITLE=%title%" -T "ALBUM=%albumtitle%" -T "DATE=%year%" -T "TRACKNUMBER=%tracknr%" -T "GENRE=%genre%" -T "PERFORMER=%albuminterpret%" -T "COMPOSER=%composer%" %haslyrics%--tag-from-file=LYRICS
TOC of the extracted CD
Track | Start | Length | Start sector | End sector
---------------------------------------------------------
1 | 0:00.00 | 3:18.59 | 0 | 14908
2 | 3:18.59 | 4:42.57 | 14909 | 36115
3 | 8:01.41 | 3:27.57 | 36116 | 51697
4 | 11:29.23 | 4:11.15 | 51698 | 70537
5 | 15:40.38 | 4:11.59 | 70538 | 89421
6 | 19:52.22 | 6:03.46 | 89422 | 116692
7 | 25:55.68 | 4:01.01 | 116693 | 134768
8 | 29:56.69 | 2:19.59 | 134769 | 145252
9 | 32:16.53 | 4:19.28 | 145253 | 164705
10 | 36:36.06 | 2:49.21 | 164706 | 177401
11 | 39:25.27 | 3:10.26 | 177402 | 191677
12 | 42:35.53 | 4:46.35 | 191678 | 213162
13 | 47:22.13 | 4:12.46 | 213163 | 232108
14 | 51:34.59 | 3:27.64 | 232109 | 247697
15 | 55:02.48 | 5:50.15 | 247698 | 273962
16 | 60:52.63 | 3:37.10 | 273963 | 290247
Track 1
Filename P:\Music\Voces8\Voces8 - eventide (2014) [FLAC]\01 - Te lucis ante terminum.wav
Pre-gap length 0:00:02.00
Peak level 81.3 %
Extraction speed 1.0 X
Track quality 100.0 %
Test CRC 965CBF35
Copy CRC 965CBF35
Accurately ripped (confidence 12) [16054268] (AR v2)
Copy OK
Track 2
Filename P:\Music\Voces8\Voces8 - eventide (2014) [FLAC]\02 - Hymn to the Fallen.wav
Peak level 95.2 %
Extraction speed 1.2 X
Track quality 100.0 %
Test CRC 8051899C
Copy CRC 8051899C
Accurately ripped (confidence 12) [17944C17] (AR v2)
Copy OK
Track 3
Filename P:\Music\Voces8\Voces8 - eventide (2014) [FLAC]\03 - Reflexionem.wav
Peak level 98.2 %
Extraction speed 1.3 X
Track quality 100.0 %
Test CRC E662C9BE
Copy CRC E662C9BE
Accurately ripped (confidence 12) [2E822F0F] (AR v2)
Copy OK
Track 4
Filename P:\Music\Voces8\Voces8 - eventide (2014) [FLAC]\04 - Where I sleep.wav
Peak level 98.1 %
Extraction speed 1.4 X
Track quality 100.0 %
Test CRC 4111383D
Copy CRC 4111383D
Accurately ripped (confidence 12) [83A40212] (AR v2)
Copy OK
Track 5
Filename P:\Music\Voces8\Voces8 - eventide (2014) [FLAC]\05 - The Seal Lullaby.wav
Peak level 68.0 %
Extraction speed 1.4 X
Track quality 100.0 %
Test CRC 43E49F02
Copy CRC 43E49F02
Accurately ripped (confidence 12) [296A64DD] (AR v2)
Copy OK
Track 6
Filename P:\Music\Voces8\Voces8 - eventide (2014) [FLAC]\06 - Second Eve.wav
Peak level 95.9 %
Extraction speed 1.5 X
Track quality 100.0 %
Test CRC FD66A9AC
Copy CRC FD66A9AC
Accurately ripped (confidence 12) [95A33575] (AR v2)
Copy OK
Track 7
Filename P:\Music\Voces8\Voces8 - eventide (2014) [FLAC]\07 - Quanta qualia.wav
Peak level 94.4 %
Extraction speed 1.2 X
Track quality 99.9 %
Test CRC ACC9A9DF
Copy CRC ACC9A9DF
Accurately ripped (confidence 12) [CD14EB64] (AR v2)
Copy OK
Track 8
Filename P:\Music\Voces8\Voces8 - eventide (2014) [FLAC]\08 - Underneath the stars.wav
Peak level 64.4 %
Extraction speed 1.1 X
Track quality 99.9 %
Test CRC D2C7ADC8
Copy CRC D2C7ADC8
Accurately ripped (confidence 12) [19494B17] (AR v2)
Copy OK
Track 9
Filename P:\Music\Voces8\Voces8 - eventide (2014) [FLAC]\09 - Locus iste.wav
Peak level 81.8 %
Extraction speed 1.6 X
Track quality 100.0 %
Test CRC 372F70A9
Copy CRC 372F70A9
Accurately ripped (confidence 12) [24F3AD6F] (AR v2)
Copy OK
Track 10
Filename P:\Music\Voces8\Voces8 - eventide (2014) [FLAC]\10 - Corpus Christi Carol.wav
Peak level 90.0 %
Extraction speed 1.2 X
Track quality 99.9 %
Test CRC 6D209F0F
Copy CRC 6D209F0F
Accurately ripped (confidence 12) [8EA322D4] (AR v2)
Copy OK
Track 11
Filename P:\Music\Voces8\Voces8 - eventide (2014) [FLAC]\11 - Benedictus.wav
Peak level 85.3 %
Extraction speed 1.6 X
Track quality 100.0 %
Test CRC 592CE1FA
Copy CRC 592CE1FA
Accurately ripped (confidence 12) [83469514] (AR v2)
Copy OK
Track 12
Filename P:\Music\Voces8\Voces8 - eventide (2014) [FLAC]\12 - Os justi.wav
Peak level 99.1 %
Extraction speed 1.5 X
Track quality 99.9 %
Test CRC 7A79158F
Copy CRC 7A79158F
Accurately ripped (confidence 12) [63C3D5FE] (AR v2)
Copy OK
Track 13
Filename P:\Music\Voces8\Voces8 - eventide (2014) [FLAC]\13 - Steal away.wav
Peak level 95.5 %
Extraction speed 1.7 X
Track quality 100.0 %
Test CRC 0FEFDF97
Copy CRC 0FEFDF97
Accurately ripped (confidence 12) [EBDD1319] (AR v2)
Copy OK
Track 14
Filename P:\Music\Voces8\Voces8 - eventide (2014) [FLAC]\14 - Ave Maria.wav
Peak level 92.7 %
Extraction speed 1.7 X
Track quality 100.0 %
Test CRC ECDAE4A5
Copy CRC ECDAE4A5
Accurately ripped (confidence 12) [F3A3B43E] (AR v2)
Copy OK
Track 15
Filename P:\Music\Voces8\Voces8 - eventide (2014) [FLAC]\15 - O magnum mysterium.wav
Peak level 96.7 %
Extraction speed 1.8 X
Track quality 100.0 %
Test CRC 735DD497
Copy CRC 735DD497
Accurately ripped (confidence 11) [AE4BBA25] (AR v2)
Copy OK
Track 16
Filename P:\Music\Voces8\Voces8 - eventide (2014) [FLAC]\16 - Te lucis ante terminum.wav
Peak level 84.7 %
Extraction speed 1.5 X
Track quality 99.9 %
Test CRC A18FB481
Copy CRC A18FB481
Accurately ripped (confidence 12) [5943293A] (AR v2)
Copy OK
All tracks accurately ripped
No errors occurred
End of status report
==== Log checksum 21F79CD0263AE0EE39FBC671DF24CA8BDEC1B8A01CE2283848B688A703C5BD60 ====
[teatrix.ru].t12631.torrent 
Торрент: Зарегистрирован [ 2016-01-07 01:50 ] · FB78A3A8A4E812B3A23252A0D3C9D44892D2A2DA

Скачать .torrent

Скачать

12 KB

Статус: проверено
Скачан: 1 раз
Размер: 270 MB
terms.php



Быстрый ответ

Имя:

      
Для отправки сообщений необходимо включить JavaScript
Показать сообщения:    

Текущее время: 05-Дек 13:32

Часовой пояс: UTC + 3


Вы можете начинать темы
Вы можете отвечать на сообщения
Вы не можете редактировать свои сообщения
Вы не можете удалять свои сообщения
Вы не можете голосовать в опросах
Вы не можете прикреплять файлы к сообщениям
Вы можете скачивать файлы