(Classical/Chamber/Baroque/Flute) Bach: Sonates & Solo Pour La Flute Traversiere (Francois Lazarevitch • Les Musiciens De Saint-Julie) [Alpha] - 2014, FLAC (tracks+.cue) lossless


 

[Цитировать]

François Lazarevitch • Les Musiciens De Saint-Julie — Johann Sebastian Bach: Sonates & Solo Pour La Flute Traversiere-Classical /Chamber/Flute • Alpha • ALPHA186 • 2014 • lossless • FLAC • tracks • 01:11:54 • what.cd • Digital booklet-01-04. Flute Sonata No. 1 in B minor, BWV1030
05-08. Flute Sonata No. 5 in E minor, BWV1034
09-12. Flute Sonata No. 6 in E major, BWV1035
13-16. Partita in A minor for solo flute, BWV1013
17-19. Flute Sonata No. 3 in A major, BWV1032
-François Lazarevitch - traverse flute || Les Musiciens De Saint-Julien || Thomas Dunford - director-

cue

REM GENRE Classical
REM DATE 2014
REM DISCID 0110DA13
REM COMMENT "ExactAudioCopy v1.0b3"
PERFORMER "F. Lazarevitch - Les Musiciens de Saint-Julien"
TITLE "J.S. Bach"
FILE "01 - Sonate en si mineur pour flute et Clavecin BWV 1030 - I. Andante.wav" WAVE
TRACK 01 AUDIO
TITLE "Sonate en si mineur pour flыte et Clavecin BWV 1030 - I. Andante"
PERFORMER "F. Lazarevitch - Les Musiciens de Saint-Julien"
INDEX 01 00:00:00
FILE "02 - Sonate en si mineur pour flute et Clavecin BWV 1030 - II. Largo e dolce.wav" WAVE
TRACK 02 AUDIO
TITLE "Sonate en si mineur pour flыte et Clavecin BWV 1030 - II. Largo e dolce"
PERFORMER "F. Lazarevitch - Les Musiciens de Saint-Julien"
INDEX 01 00:00:00
FILE "03 - Sonate en si mineur pour flute et Clavecin BWV 1030 - III. Presto.wav" WAVE
TRACK 03 AUDIO
TITLE "Sonate en si mineur pour flыte et Clavecin BWV 1030 - III. Presto"
PERFORMER "F. Lazarevitch - Les Musiciens de Saint-Julien"
INDEX 01 00:00:00
FILE "04 - Sonate en si mineur pour flute et Clavecin BWV 1030 - IV. Presto.wav" WAVE
TRACK 04 AUDIO
TITLE "Sonate en si mineur pour flыte et Clavecin BWV 1030 - IV. Presto"
PERFORMER "F. Lazarevitch - Les Musiciens de Saint-Julien"
INDEX 01 00:00:00
FILE "05 - Sonate en mi mineur pour flute et basse continue BWV 1034 - I. Adagio ma non tanto.wav" WAVE
TRACK 05 AUDIO
TITLE "Sonate en mi mineur pour flыte et basse continue BWV 1034 - I. Adagio ma non ..."
PERFORMER "F. Lazarevitch - Les Musiciens de Saint-Julien"
INDEX 01 00:00:00
FILE "06 - Sonate en mi mineur pour flute et basse continue BWV 1034 - II. Allegro.wav" WAVE
TRACK 06 AUDIO
TITLE "Sonate en mi mineur pour flыte et basse continue BWV 1034 - II. Allegro"
PERFORMER "F. Lazarevitch - Les Musiciens de Saint-Julien"
INDEX 01 00:00:00
FILE "07 - Sonate en mi mineur pour flute et basse continue BWV 1034 - III. Andante.wav" WAVE
TRACK 07 AUDIO
TITLE "Sonate en mi mineur pour flыte et basse continue BWV 1034 - III. Andante"
PERFORMER "F. Lazarevitch - Les Musiciens de Saint-Julien"
INDEX 01 00:00:00
FILE "08 - Sonate en mi mineur pour flute et basse continue BWV 1034 - IV. Allegro.wav" WAVE
TRACK 08 AUDIO
TITLE "Sonate en mi mineur pour flыte et basse continue BWV 1034 - IV. Allegro"
PERFORMER "F. Lazarevitch - Les Musiciens de Saint-Julien"
INDEX 01 00:00:00
FILE "09 - Sonate en mi majeur pour flute et basse continue BWV 1035 - I. Adagio ma non tanto.wav" WAVE
TRACK 09 AUDIO
TITLE "Sonate en mi majeur pour flыte et basse continue BWV 1035 - I. Adagio ma non ..."
PERFORMER "F. Lazarevitch - Les Musiciens de Saint-Julien"
INDEX 01 00:00:00
FILE "10 - Sonate en mi majeur pour flute et basse continue BWV 1035 - II. Allegro.wav" WAVE
TRACK 10 AUDIO
TITLE "Sonate en mi majeur pour flыte et basse continue BWV 1035 - II. Allegro"
PERFORMER "F. Lazarevitch - Les Musiciens de Saint-Julien"
INDEX 01 00:00:00
FILE "11 - Sonate en mi majeur pour flute et basse continue BWV 1035 - III. Siciliana.wav" WAVE
TRACK 11 AUDIO
TITLE "Sonate en mi majeur pour flыte et basse continue BWV 1035 - III. Siciliana"
PERFORMER "F. Lazarevitch - Les Musiciens de Saint-Julien"
INDEX 01 00:00:00
FILE "12 - Sonate en mi majeur pour flute et basse continue BWV 1035 - IV. Allegro assai.wav" WAVE
TRACK 12 AUDIO
TITLE "Sonate en mi majeur pour flыte et basse continue BWV 1035 - IV. Allegro assai"
PERFORMER "F. Lazarevitch - Les Musiciens de Saint-Julien"
INDEX 01 00:00:00
FILE "13 - Partita en la min pour flute seule BWV 1013 - I. Allemande.wav" WAVE
TRACK 13 AUDIO
TITLE "Partita en la min pour flыte seule BWV 1013 - I. Allemande"
PERFORMER "F. Lazarevitch - Les Musiciens de Saint-Julien"
INDEX 01 00:00:00
FILE "14 - Partita en la min pour flute seule BWV 1013 - II. Corrente.wav" WAVE
TRACK 14 AUDIO
TITLE "Partita en la min pour flыte seule BWV 1013 - II. Corrente"
PERFORMER "F. Lazarevitch - Les Musiciens de Saint-Julien"
INDEX 01 00:00:00
FILE "15 - Partita en la min pour flute seule BWV 1013 - III. Sarabande.wav" WAVE
TRACK 15 AUDIO
TITLE "Partita en la min pour flыte seule BWV 1013 - III. Sarabande"
PERFORMER "F. Lazarevitch - Les Musiciens de Saint-Julien"
INDEX 01 00:00:00
FILE "16 - Partita en la min pour flute seule BWV 1013 - IV. Bourree anglaise.wav" WAVE
TRACK 16 AUDIO
TITLE "Partita en la min pour flыte seule BWV 1013 - IV. Bourrйe anglaise"
PERFORMER "F. Lazarevitch - Les Musiciens de Saint-Julien"
INDEX 01 00:00:00
FILE "17 - Sonate en la majeur pour flute et Clavecin BWV 1032 - I. Vivace.wav" WAVE
TRACK 17 AUDIO
TITLE "Sonate en la majeur pour flыte et Clavecin BWV 1032 - I. Vivace"
PERFORMER "F. Lazarevitch - Les Musiciens de Saint-Julien"
INDEX 01 00:00:00
FILE "18 - Sonate en la majeur pour flute et Clavecin BWV 1032 - II. Largo e dolce.wav" WAVE
TRACK 18 AUDIO
TITLE "Sonate en la majeur pour flыte et Clavecin BWV 1032 - II. Largo e dolce"
PERFORMER "F. Lazarevitch - Les Musiciens de Saint-Julien"
INDEX 01 00:00:00
FILE "19 - Sonate en la majeur pour flute et Clavecin BWV 1032 - III. Allegro.wav" WAVE
TRACK 19 AUDIO
TITLE "Sonate en la majeur pour flыte et Clavecin BWV 1032 - III. Allegro"
PERFORMER "F. Lazarevitch - Les Musiciens de Saint-Julien"
INDEX 01 00:00:00

EAC

Exact Audio Copy V1.0 beta 3 from 29. August 2011
EAC extraction logfile from 28. October 2014, 9:51
F. Lazarevitch - Les Musiciens de Saint-Julien / J.S. Bach
Used drive : ATAPI iHBS112 2 Adapter: 2 ID: 0
Read mode : Secure
Utilize accurate stream : Yes
Defeat audio cache : Yes
Make use of C2 pointers : No
Read offset correction : 6
Overread into Lead-In and Lead-Out : No
Fill up missing offset samples with silence : Yes
Delete leading and trailing silent blocks : No
Null samples used in CRC calculations : Yes
Used interface : Native Win32 interface for Win NT & 2000
Gap handling : Appended to previous track
Used output format : User Defined Encoder
Selected bitrate : 1024 kBit/s
Quality : Low
Add ID3 tag : No
Command line compressor : C:\Program Files\FLAC Frontend\tools\flac.exe
Additional command line options : -8 -V -T "ARTIST=%artist%" -T "TITLE=%title%" -T "ALBUM=%albumtitle%" -T "DATE=%year%" -T "TRACKNUMBER=%tracknr%" -T "TOTALTRACKS=%numtracks%" -T "GENRE=%genre%" -T "ALBUMARTIST=%albumartist%" -T "ALBUM ARTIST=%albumartist%" -T "COMPOSER=%composer%" -T "PERFORMER=%albuminterpret%" -T "DISCNUMBER=%cdnumber%" -T "TOTALDISCS=%totalcds%" -T "COMMENT=EAC Secure Mode, Test & Copy, AccurateRip, FLAC -8" %source%
TOC of the extracted CD
Track | Start | Length | Start sector | End sector
---------------------------------------------------------
1 | 0:00.00 | 7:18.20 | 0 | 32869
2 | 7:18.20 | 3:26.69 | 32870 | 48388
3 | 10:45.14 | 1:36.62 | 48389 | 55650
4 | 12:22.01 | 4:16.70 | 55651 | 74920
5 | 16:38.71 | 3:06.50 | 74921 | 88920
6 | 19:45.46 | 2:45.71 | 88921 | 101366
7 | 22:31.42 | 3:41.05 | 101367 | 117946
8 | 26:12.47 | 4:55.59 | 117947 | 140130
9 | 31:08.31 | 2:19.15 | 140131 | 150570
10 | 33:27.46 | 3:13.74 | 150571 | 165119
11 | 36:41.45 | 3:23.65 | 165120 | 180409
12 | 40:05.35 | 3:16.67 | 180410 | 195176
13 | 43:22.27 | 5:59.39 | 195177 | 222140
14 | 49:21.66 | 3:50.50 | 222141 | 239440
15 | 53:12.41 | 4:28.37 | 239441 | 259577
16 | 57:41.03 | 2:55.24 | 259578 | 272726
17 | 60:36.27 | 3:55.56 | 272727 | 290407
18 | 64:32.08 | 3:08.67 | 290408 | 304574
19 | 67:41.00 | 4:13.46 | 304575 | 323595
Track 1
Filename P:\DL\F. Lazarevitch - Les Musiciens de Saint-Julien - J.S. Bach (2014) [FLAC]\01 - Sonate en si mineur pour flute et Clavecin BWV 1030 - I. Andante.wav
Pre-gap length 0:00:02.00
Peak level 89.6 %
Extraction speed 6.3 X
Track quality 100.0 %
Test CRC 87307BAE
Copy CRC 87307BAE
Track not present in AccurateRip database
Copy OK
Track 2
Filename P:\DL\F. Lazarevitch - Les Musiciens de Saint-Julien - J.S. Bach (2014) [FLAC]\02 - Sonate en si mineur pour flute et Clavecin BWV 1030 - II. Largo e dolce.wav
Peak level 88.7 %
Extraction speed 6.4 X
Track quality 100.0 %
Test CRC 44DD6550
Copy CRC 44DD6550
Track not present in AccurateRip database
Copy OK
Track 3
Filename P:\DL\F. Lazarevitch - Les Musiciens de Saint-Julien - J.S. Bach (2014) [FLAC]\03 - Sonate en si mineur pour flute et Clavecin BWV 1030 - III. Presto.wav
Peak level 79.6 %
Extraction speed 5.2 X
Track quality 100.0 %
Test CRC DD146798
Copy CRC DD146798
Track not present in AccurateRip database
Copy OK
Track 4
Filename P:\DL\F. Lazarevitch - Les Musiciens de Saint-Julien - J.S. Bach (2014) [FLAC]\04 - Sonate en si mineur pour flute et Clavecin BWV 1030 - IV. Presto.wav
Peak level 89.6 %
Extraction speed 6.1 X
Track quality 99.9 %
Test CRC 238C66BB
Copy CRC 238C66BB
Track not present in AccurateRip database
Copy OK
Track 5
Filename P:\DL\F. Lazarevitch - Les Musiciens de Saint-Julien - J.S. Bach (2014) [FLAC]\05 - Sonate en mi mineur pour flute et basse continue BWV 1034 - I. Adagio ma non tanto.wav
Peak level 84.8 %
Extraction speed 7.2 X
Track quality 100.0 %
Test CRC AF4D92CB
Copy CRC AF4D92CB
Track not present in AccurateRip database
Copy OK
Track 6
Filename P:\DL\F. Lazarevitch - Les Musiciens de Saint-Julien - J.S. Bach (2014) [FLAC]\06 - Sonate en mi mineur pour flute et basse continue BWV 1034 - II. Allegro.wav
Peak level 97.7 %
Extraction speed 7.3 X
Track quality 100.0 %
Test CRC 87CE410D
Copy CRC 87CE410D
Track not present in AccurateRip database
Copy OK
Track 7
Filename P:\DL\F. Lazarevitch - Les Musiciens de Saint-Julien - J.S. Bach (2014) [FLAC]\07 - Sonate en mi mineur pour flute et basse continue BWV 1034 - III. Andante.wav
Peak level 71.3 %
Extraction speed 6.5 X
Track quality 99.9 %
Test CRC E442E5F9
Copy CRC E442E5F9
Track not present in AccurateRip database
Copy OK
Track 8
Filename P:\DL\F. Lazarevitch - Les Musiciens de Saint-Julien - J.S. Bach (2014) [FLAC]\08 - Sonate en mi mineur pour flute et basse continue BWV 1034 - IV. Allegro.wav
Peak level 98.4 %
Extraction speed 7.4 X
Track quality 99.9 %
Test CRC D2D67CA3
Copy CRC D2D67CA3
Track not present in AccurateRip database
Copy OK
Track 9
Filename P:\DL\F. Lazarevitch - Les Musiciens de Saint-Julien - J.S. Bach (2014) [FLAC]\09 - Sonate en mi majeur pour flute et basse continue BWV 1035 - I. Adagio ma non tanto.wav
Peak level 83.6 %
Extraction speed 8.0 X
Track quality 100.0 %
Test CRC 684E4687
Copy CRC 684E4687
Track not present in AccurateRip database
Copy OK
Track 10
Filename P:\DL\F. Lazarevitch - Les Musiciens de Saint-Julien - J.S. Bach (2014) [FLAC]\10 - Sonate en mi majeur pour flute et basse continue BWV 1035 - II. Allegro.wav
Peak level 93.9 %
Extraction speed 8.5 X
Track quality 100.0 %
Test CRC BD60FD36
Copy CRC BD60FD36
Track not present in AccurateRip database
Copy OK
Track 11
Filename P:\DL\F. Lazarevitch - Les Musiciens de Saint-Julien - J.S. Bach (2014) [FLAC]\11 - Sonate en mi majeur pour flute et basse continue BWV 1035 - III. Siciliana.wav
Peak level 87.2 %
Extraction speed 7.3 X
Track quality 99.9 %
Test CRC 8D639D25
Copy CRC 8D639D25
Track not present in AccurateRip database
Copy OK
Track 12
Filename P:\DL\F. Lazarevitch - Les Musiciens de Saint-Julien - J.S. Bach (2014) [FLAC]\12 - Sonate en mi majeur pour flute et basse continue BWV 1035 - IV. Allegro assai.wav
Peak level 82.5 %
Extraction speed 7.3 X
Track quality 99.9 %
Test CRC 5A850128
Copy CRC 5A850128
Track not present in AccurateRip database
Copy OK
Track 13
Filename P:\DL\F. Lazarevitch - Les Musiciens de Saint-Julien - J.S. Bach (2014) [FLAC]\13 - Partita en la min pour flute seule BWV 1013 - I. Allemande.wav
Peak level 74.9 %
Extraction speed 8.9 X
Track quality 99.9 %
Test CRC 6F7CB5CD
Copy CRC 6F7CB5CD
Track not present in AccurateRip database
Copy OK
Track 14
Filename P:\DL\F. Lazarevitch - Les Musiciens de Saint-Julien - J.S. Bach (2014) [FLAC]\14 - Partita en la min pour flute seule BWV 1013 - II. Corrente.wav
Peak level 75.8 %
Extraction speed 9.9 X
Track quality 100.0 %
Test CRC 48A6E80E
Copy CRC 48A6E80E
Track not present in AccurateRip database
Copy OK
Track 15
Filename P:\DL\F. Lazarevitch - Les Musiciens de Saint-Julien - J.S. Bach (2014) [FLAC]\15 - Partita en la min pour flute seule BWV 1013 - III. Sarabande.wav
Peak level 94.8 %
Extraction speed 10.4 X
Track quality 100.0 %
Test CRC B6006F85
Copy CRC B6006F85
Track not present in AccurateRip database
Copy OK
Track 16
Filename P:\DL\F. Lazarevitch - Les Musiciens de Saint-Julien - J.S. Bach (2014) [FLAC]\16 - Partita en la min pour flute seule BWV 1013 - IV. Bourree anglaise.wav
Peak level 67.0 %
Extraction speed 9.9 X
Track quality 100.0 %
Test CRC C523A025
Copy CRC C523A025
Track not present in AccurateRip database
Copy OK
Track 17
Filename P:\DL\F. Lazarevitch - Les Musiciens de Saint-Julien - J.S. Bach (2014) [FLAC]\17 - Sonate en la majeur pour flute et Clavecin BWV 1032 - I. Vivace.wav
Peak level 77.6 %
Extraction speed 10.6 X
Track quality 100.0 %
Test CRC AE7D5322
Copy CRC AE7D5322
Track not present in AccurateRip database
Copy OK
Track 18
Filename P:\DL\F. Lazarevitch - Les Musiciens de Saint-Julien - J.S. Bach (2014) [FLAC]\18 - Sonate en la majeur pour flute et Clavecin BWV 1032 - II. Largo e dolce.wav
Peak level 68.6 %
Extraction speed 8.3 X
Track quality 99.9 %
Test CRC 3172509A
Copy CRC 3172509A
Track not present in AccurateRip database
Copy OK
Track 19
Filename P:\DL\F. Lazarevitch - Les Musiciens de Saint-Julien - J.S. Bach (2014) [FLAC]\19 - Sonate en la majeur pour flute et Clavecin BWV 1032 - III. Allegro.wav
Peak level 85.4 %
Extraction speed 9.3 X
Track quality 99.9 %
Test CRC 91AC8CFF
Copy CRC 91AC8CFF
Track not present in AccurateRip database
Copy OK
None of the tracks are present in the AccurateRip database
No errors occurred
End of status report
---- CUETools DB Plugin V2.1.3
[CTDB TOCID: rIKiU.7ohHY8FqPfhszC.Zs5QLQ-] found, Submit result: rIKiU.7ohHY8FqPfhszC.Zs5QLQ- has been confirmed
[9fca1f0b] (1/1) Accurately ripped
==== Log checksum 33221BAF274521B3D3540A11CD15D9F507FABA5BABE41BD63FFA2558E181B709 ====



Показать сообщения:    

Текущее время: 08-Дек 11:00

Часовой пояс: UTC + 3


Вы не можете начинать темы
Вы не можете отвечать на сообщения
Вы не можете редактировать свои сообщения
Вы не можете удалять свои сообщения
Вы не можете голосовать в опросах
Вы не можете прикреплять файлы к сообщениям
Вы не можете скачивать файлы