Долгая счастливая жизнь (Борис Хлебников) [2012, Драма, DVDRip]


Статистика раздачи [Обновить пиров]
Размер:  1.37 GB   |    Зарегистрирован:  10 месяцев 29 дней   |    Скачан:  0 раз

Полного источника не было: Никогда

 
   
 
 
 

[Цитировать]

Долгая счастливая жизнь
Страна: Россия
Жанр: Драма
Год выпуска: 2012
Продолжительность: 01:15:40
Режиссёр: Борис Хлебников
В ролях: Александр Яценко, Анна Котова, Владимир Коробейников, Сергей Наседкин, Евгений Сытый, Глеб Пускепалис, Инна Стерлигова, Александр Алябьев, Сергей Пестриков, Павел Колесников.
Описание: Молодой предприниматель Саша поставлен перед выбором: получив компенсацию, мирно расстаться с налаженным хозяйством и уехать в город с любимой девушкой или вступить в опасную борьбу с новыми владельцами, чтобы отстоять права живущих на его земле людей.
Доп. информация:
- Название «Долгая счастливая жизнь» фильм получил от названия песни Егора Летова из одноимённого альбома группы «Гражданская оборона».
- Место съемок фильма — Мурманская область (Терский район), поселок Умба на берегу Белого моря. Съемки проходили на территории хозяйства, любезно предоставленного местным фермером. Жители поселка принимали в съемках непосредственное участие.
- В первые дни группа работала над сценой пожара, специально построив для этого целую улицу с деревянными домами, а также разгрузила около 200 мешков картошки.
Сэмпл: http://sendfile.su/1150858
Качество видео: DVDRip
Формат видео: AVI
Видео: Xvid, 720x384, 25.00fps, 2 128 Kbps
Аудио: Русский, AC3, 48000Hz, 448kbp, 6ch

MediaInfo

General
Complete name : Долгая счастливая жизнь.avi
Format : AVI
Format/Info : Audio Video Interleave
File size : 1.37 GiB
Duration : 1h 15mn
Overall bit rate : 2 586 Kbps
Writing application : VirtualDubMod 1.5.10.3 | www.virtualdub-fr.org || (build 2550/release)
Writing library : VirtualDubMod build 2550/release
Video
ID : 0
Format : MPEG-4 Visual
Format profile : Advanced Simple@L5
Format settings, BVOP : Yes
Format settings, QPel : No
Format settings, GMC : No warppoints
Format settings, Matrix : Custom
Codec ID : XVID
Codec ID/Hint : XviD
Duration : 1h 15mn
Bit rate : 2 128 Kbps
Width : 720 pixels
Height : 384 pixels
Display aspect ratio : 1.875
Frame rate : 25.000 fps
Color space : YUV
Chroma subsampling : 4:2:0
Bit depth : 8 bits
Scan type : Progressive
Bits/(Pixel*Frame) : 0.308
Stream size : 1.12 GiB (82%)
Writing library : XviD 1.2.1 (UTC 2008-12-04)
Audio
ID : 1
Format : AC-3
Format/Info : Audio Coding 3
Mode extension : CM (complete main)
Codec ID : 2000
Duration : 1h 15mn
Bit rate mode : Constant
Bit rate : 448 Kbps
Channel(s) : 6 channels
Channel positions : Front: L C R, Side: L R, LFE
Sampling rate : 48.0 KHz
Bit depth : 16 bits
Stream size : 242 MiB (17%)
Alignment : Split accross interleaves
Interleave, duration : 40 ms (1.00 video frame)
Interleave, preload duration : 500 ms

Скриншот c названием фильма

Скриншоты



[teatrix.ru].t12635.torrent 
Торрент: Зарегистрирован [ 2016-01-07 05:55 ] · C3E2F4D9771BEC5257A4C4D22BB701DE07849C1E

Скачать .torrent

Скачать

14 KB

Статус: проверено
Скачан: 0 раз
Размер: 1.37 GB
terms.php



Быстрый ответ

Имя:

      
Для отправки сообщений необходимо включить JavaScript
Показать сообщения:    

Текущее время: 05-Дек 11:26

Часовой пояс: UTC + 3


Вы можете начинать темы
Вы можете отвечать на сообщения
Вы не можете редактировать свои сообщения
Вы не можете удалять свои сообщения
Вы не можете голосовать в опросах
Вы не можете прикреплять файлы к сообщениям
Вы можете скачивать файлы