Принцесса и трубочист (Лариса Крюкова) [1972 г., сказка, кукольный телеспектакль, TVRip]


 

[Цитировать]

Принцесса и трубочист Год выпуска: 1972.
Жанр: сказка, сказка, кукольный телеспектакль.
Продолжительность: 01:04:01.
Режиссер: Лариса Крюкова.
О спектакле:
Трубочист Янычек пьет воду из ручья и превращается в осла. Принцесса Аполенка помогает своему другу Янычеку разрушить это колдовство.
Дополнительная информация:
Страна: СССР .
Выпущено: Главная редакция программ для детей.
Оператор: Юрий Мелешко.
Релиз

Качество видео:...TVRip
Формат:.................AVI
Видео:..640x480 (1.33:1), 25 fps, XviD MPEG-4 ~1801 kbps avg, 0.23 bit/pixel
Аудио:..44.100 kHz, MPEG Layer 3, 2 ch, ~128.00 kbps avg

Отчет Media Info

General
Complete name : Princessa.i.trubochist.1972.XviD.TVRip.fenixclub.avi
Format : AVI
Format/Info : Audio Video Interleave
File size : 140 MiB
Duration : 14mn 14s
Overall bit rate : 1 375 Kbps
Writing library : VirtualDub build 32842/release
Video
ID : 0
Format : MPEG-4 Visual
Format profile : Advanced Simple@L5
Format settings, BVOP : 2
Format settings, QPel : No
Format settings, GMC : No warppoints
Format settings, Matrix : Default (H.263)
Codec ID : XVID
Codec ID/Hint : XviD
Duration : 14mn 14s
Bit rate : 1 238 Kbps
Width : 720 pixels
Height : 544 pixels
Display aspect ratio : 4:3
Frame rate : 25.000 fps
Color space : YUV
Chroma subsampling : 4:2:0
Bit depth : 8 bits
Scan type : Progressive
Compression mode : Lossy
Bits/(Pixel*Frame) : 0.126
Stream size : 126 MiB (90%)
Writing library : XviD 73
Audio
ID : 1
Format : MPEG Audio
Format version : Version 1
Format profile : Layer 3
Mode : Joint stereo
Mode extension : MS Stereo
Codec ID : 55
Codec ID/Hint : MP3
Duration : 14mn 14s
Bit rate mode : Constant
Bit rate : 128 Kbps
Channel(s) : 2 channels
Sampling rate : 48.0 KHz
Compression mode : Lossy
Stream size : 13.0 MiB (9%)
Alignment : Split accross interleaves
Interleave, duration : 40 ms (1.00 video frame)
Interleave, preload duratio : 500 ms

Скриншоты

Альтернативный хост




Показать сообщения:    

Текущее время: 10-Дек 15:42

Часовой пояс: UTC + 3


Вы не можете начинать темы
Вы не можете отвечать на сообщения
Вы не можете редактировать свои сообщения
Вы не можете удалять свои сообщения
Вы не можете голосовать в опросах
Вы не можете прикреплять файлы к сообщениям
Вы не можете скачивать файлы