(Classical/Vocal/Baroque) Henry Purcell: Harmonia Sacra (Rosemary Joshua, Christophe Rousset, Les Talens Lyriques) - 2012, FLAC (tracks+.cue) lossless


 

[Цитировать]

Rosemary Joshua — Henry Purcell: Harmonia Sacra-Classical/Vocal/Baroque • Aparté • AP027 • 2012 • lossless • FLAC • tracks • 01:15:38 • what.cd • сканы-01. Tell Me, Some Pitying Angel (The Blessed Virgin's Expostulation)
02. In The Black, Dismal Dungeon Of Despair
03. We Sing To Him, Whose Wisdom Form'd The Ear
04. Air In G Minor
05. Great God, And Just (A Penitential Hymn)
06. My Song Shall Be Alway (Psalm 89)
07. Ground In D Minor
08. Lord, What Is Man?
09. Let The Night Perish (Job's Curse)
10. Chaconne In G Minor
11. The Night Is Come (An Evening Hymn)
12. With Sick And Famish'd Eyes
13. How Have I Stray'd
14-17. Suite In G Minor
18. My Opening Eyes Are Purged (A Divine Song Of The Passion Of Our Saviour)
19. How Long, Great God (The Aspiration)
20. Ground In C Minor
21. Sleep, Adam, And Take Thy Rest
22. Thou Wakeful Shepherd (A Morning Hymn)
23. The Earth Trembled (On Our Saviour's Passion)
24. Now That The Sun Hath Veil'd His Light (An Evening Hymn On A Ground)
-Rosemary Joshua - soprano || Laurence Dreyfus - viola da gamba || Elizabeth Kenny - lute || Christophe Rousset - harpsichord, organ, direction
Les Talens Lyriques-

cue

TITLE "Harmonia Sacra"
PERFORMER "Rosemary Joshua; Christophe Rousset: Les Talens Lyriques"
REM GENRE "Classical"
REM DATE "2012"
REM DISCNUMBER 1
REM TOTALDISCS 1
REM DISCID 6A11BA18
REM REPLAYGAIN_ALBUM_GAIN 3.95 dB
REM REPLAYGAIN_ALBUM_PEAK 0.999969
FILE "01 Purcell: Tell Me, Some Pitying Angel (The Blessed Virgin's Expostulation).flac" WAVE
TRACK 01 AUDIO
TITLE "Purcell: Tell Me, Some Pitying Angel (The Blessed Virgin's Expostulation)"
SONGWRITER "Henry Purcell"
ISRC FR0V61102701
REM REPLAYGAIN_TRACK_GAIN 2.82 dB
REM REPLAYGAIN_TRACK_PEAK 0.959869
INDEX 01 00:00:00
FILE "02 Purcell: In The Black, Dismal Dungeon Of Despair.flac" WAVE
TRACK 02 AUDIO
TITLE "Purcell: In The Black, Dismal Dungeon Of Despair"
SONGWRITER "Henry Purcell"
ISRC FR0V61102702
REM REPLAYGAIN_TRACK_GAIN 0.89 dB
REM REPLAYGAIN_TRACK_PEAK 0.999969
INDEX 01 00:00:00
FILE "03 Purcell: We Sing To Him, Whose Wisdom Form'd The Ear.flac" WAVE
TRACK 03 AUDIO
TITLE "Purcell: We Sing To Him, Whose Wisdom Form'd The Ear"
SONGWRITER "Henry Purcell"
ISRC FR0V61102703
REM REPLAYGAIN_TRACK_GAIN 2.49 dB
REM REPLAYGAIN_TRACK_PEAK 0.775696
INDEX 01 00:00:00
FILE "04 Purcell: Air In G Minor.flac" WAVE
TRACK 04 AUDIO
TITLE "Purcell: Air In G Minor"
SONGWRITER "Henry Purcell"
ISRC FR0V61102704
REM REPLAYGAIN_TRACK_GAIN 11.77 dB
REM REPLAYGAIN_TRACK_PEAK 0.141418
INDEX 01 00:00:00
FILE "05 Purcell: Great God, And Just (A Penitential Hymn).flac" WAVE
TRACK 05 AUDIO
TITLE "Purcell: Great God, And Just (A Penitential Hymn)"
SONGWRITER "Henry Purcell"
ISRC FR0V61102705
REM REPLAYGAIN_TRACK_GAIN 2.43 dB
REM REPLAYGAIN_TRACK_PEAK 0.611938
INDEX 01 00:00:00
FILE "06 Purcell: My Song Shall Be Alway (Psalm 89).flac" WAVE
TRACK 06 AUDIO
TITLE "Purcell: My Song Shall Be Alway (Psalm 89)"
SONGWRITER "Henry Purcell"
ISRC FR0V61102706
REM REPLAYGAIN_TRACK_GAIN 6.23 dB
REM REPLAYGAIN_TRACK_PEAK 0.518768
INDEX 01 00:00:00
FILE "07 Purcell: Ground In D Minor.flac" WAVE
TRACK 07 AUDIO
TITLE "Purcell: Ground In D Minor"
SONGWRITER "Henry Purcell"
ISRC FR0V61102707
REM REPLAYGAIN_TRACK_GAIN 9.85 dB
REM REPLAYGAIN_TRACK_PEAK 0.204651
INDEX 01 00:00:00
FILE "08 Purcell: Lord, What Is Man.flac" WAVE
TRACK 08 AUDIO
TITLE "Purcell: Lord, What Is Man"
SONGWRITER "Henry Purcell"
ISRC FR0V61102708
REM REPLAYGAIN_TRACK_GAIN 1.70 dB
REM REPLAYGAIN_TRACK_PEAK 0.822418
INDEX 01 00:00:00
FILE "09 Purcell: Let The Night Perish (Job's Curse).flac" WAVE
TRACK 09 AUDIO
TITLE "Purcell: Let The Night Perish (Job's Curse)"
SONGWRITER "Henry Purcell"
ISRC FR0V61102709
REM REPLAYGAIN_TRACK_GAIN 4.45 dB
REM REPLAYGAIN_TRACK_PEAK 0.546204
INDEX 01 00:00:00
FILE "10 Purcell: Chaconne In G Minor.flac" WAVE
TRACK 10 AUDIO
TITLE "Purcell: Chaconne In G Minor"
SONGWRITER "Henry Purcell"
ISRC FR0V61102710
REM REPLAYGAIN_TRACK_GAIN 10.34 dB
REM REPLAYGAIN_TRACK_PEAK 0.187592
INDEX 01 00:00:00
FILE "11 Purcell: The Night Is Come (An Evening Hymn).flac" WAVE
TRACK 11 AUDIO
TITLE "Purcell: The Night Is Come (An Evening Hymn)"
SONGWRITER "Henry Purcell"
ISRC FR0V61102711
REM REPLAYGAIN_TRACK_GAIN 0.45 dB
REM REPLAYGAIN_TRACK_PEAK 0.822784
INDEX 01 00:00:00
FILE "12 Purcell: With Sick And Famish'd Eyes.flac" WAVE
TRACK 12 AUDIO
TITLE "Purcell: With Sick And Famish'd Eyes"
SONGWRITER "Henry Purcell"
ISRC FR0V61102712
REM REPLAYGAIN_TRACK_GAIN 4.76 dB
REM REPLAYGAIN_TRACK_PEAK 0.810760
INDEX 01 00:00:00
FILE "13 Purcell: How Have I Stray'd.flac" WAVE
TRACK 13 AUDIO
TITLE "Purcell: How Have I Stray'd"
SONGWRITER "Henry Purcell"
ISRC FR0V61102713
REM REPLAYGAIN_TRACK_GAIN 3.02 dB
REM REPLAYGAIN_TRACK_PEAK 0.670288
INDEX 01 00:00:00
FILE "14 Purcell: Suite In G Minor - 1. Prelude.flac" WAVE
TRACK 14 AUDIO
TITLE "Purcell: Suite In G Minor - 1. Prelude"
SONGWRITER "Henry Purcell"
ISRC FR0V61102714
REM REPLAYGAIN_TRACK_GAIN 14.20 dB
REM REPLAYGAIN_TRACK_PEAK 0.110443
INDEX 01 00:00:00
FILE "15 Purcell: Suite In G Minor - 2. Allemande.flac" WAVE
TRACK 15 AUDIO
TITLE "Purcell: Suite In G Minor - 2. Allemande"
SONGWRITER "Henry Purcell"
ISRC FR0V61102715
REM REPLAYGAIN_TRACK_GAIN 11.34 dB
REM REPLAYGAIN_TRACK_PEAK 0.171692
INDEX 01 00:00:00
FILE "16 Purcell: Suite In G Minor - 3. Courante.flac" WAVE
TRACK 16 AUDIO
TITLE "Purcell: Suite In G Minor - 3. Courante"
SONGWRITER "Henry Purcell"
ISRC FR0V61102716
REM REPLAYGAIN_TRACK_GAIN 10.71 dB
REM REPLAYGAIN_TRACK_PEAK 0.172546
INDEX 01 00:00:00
FILE "17 Purcell: Suite In G Minor - 4. Sarabande.flac" WAVE
TRACK 17 AUDIO
TITLE "Purcell: Suite In G Minor - 4. Sarabande"
SONGWRITER "Henry Purcell"
ISRC FR0V61102717
REM REPLAYGAIN_TRACK_GAIN 12.62 dB
REM REPLAYGAIN_TRACK_PEAK 0.137756
INDEX 01 00:00:00
FILE "18 Purcell: My Opening Eyes Are Purged (A Divine Song Of The Passion Of Our Saviour).flac" WAVE
TRACK 18 AUDIO
TITLE "Purcell: My Opening Eyes Are Purged (A Divine Song Of The Passion Of Our Saviour)"
SONGWRITER "Henry Purcell"
ISRC FR0V61102718
REM REPLAYGAIN_TRACK_GAIN 1.34 dB
REM REPLAYGAIN_TRACK_PEAK 0.822357
INDEX 01 00:00:00
FILE "19 Purcell: How Long, Great God (The Aspiration).flac" WAVE
TRACK 19 AUDIO
TITLE "Purcell: How Long, Great God (The Aspiration)"
SONGWRITER "Henry Purcell"
ISRC FR0V61102719
REM REPLAYGAIN_TRACK_GAIN 5.54 dB
REM REPLAYGAIN_TRACK_PEAK 0.533325
INDEX 01 00:00:00
FILE "20 Purcell: Ground In C Minor.flac" WAVE
TRACK 20 AUDIO
TITLE "Purcell: Ground In C Minor"
SONGWRITER "Henry Purcell"
ISRC FR0V61102720
REM REPLAYGAIN_TRACK_GAIN 12.96 dB
REM REPLAYGAIN_TRACK_PEAK 0.139679
INDEX 01 00:00:00
FILE "21 Purcell: Sleep, Adam, And Take Thy Rest.flac" WAVE
TRACK 21 AUDIO
TITLE "Purcell: Sleep, Adam, And Take Thy Rest"
SONGWRITER "Henry Purcell"
ISRC FR0V61102721
REM REPLAYGAIN_TRACK_GAIN 3.03 dB
REM REPLAYGAIN_TRACK_PEAK 0.754517
INDEX 01 00:00:00
FILE "22 Purcell: Thou Wakeful Shepherd (A Morning Hymn).flac" WAVE
TRACK 22 AUDIO
TITLE "Purcell: Thou Wakeful Shepherd (A Morning Hymn)"
SONGWRITER "Henry Purcell"
ISRC FR0V61102722
REM REPLAYGAIN_TRACK_GAIN 2.56 dB
REM REPLAYGAIN_TRACK_PEAK 0.753754
INDEX 01 00:00:00
FILE "23 Purcell: The Earth Trembled (On Our Saviour's Passion).flac" WAVE
TRACK 23 AUDIO
TITLE "Purcell: The Earth Trembled (On Our Saviour's Passion)"
SONGWRITER "Henry Purcell"
ISRC FR0V61102723
REM REPLAYGAIN_TRACK_GAIN 3.54 dB
REM REPLAYGAIN_TRACK_PEAK 0.995789
INDEX 01 00:00:00
FILE "24 Purcell: Now That The Sun Hath Veil'd His Light (An Evening Hymn On A Ground).flac" WAVE
TRACK 24 AUDIO
TITLE "Purcell: Now That The Sun Hath Veil'd His Light (An Evening Hymn On A Ground)"
SONGWRITER "Henry Purcell"
ISRC FR0V61102724
REM REPLAYGAIN_TRACK_GAIN 5.50 dB
REM REPLAYGAIN_TRACK_PEAK 0.587372
INDEX 01 00:00:00

EAC

X Lossless Decoder version 20130127 (142.3)
XLD extraction logfile from 2013-03-05 13:41:54 +0800
Rosemary Joshua; Christophe Rousset: Les Talens Lyriques / Harmonia Sacra
Used drive : hp CDDVDW TS-L633N (revision 0300)
Media type : Pressed CD
Ripper mode : XLD Secure Ripper
Disable audio cache : OK for the drive with a cache less than 1375KiB
Make use of C2 pointers : NO
Read offset correction : 6
Max retry count : 100
Gap status : Analyzed, Appended (except HTOA)
TOC of the extracted CD
Track | Start | Length | Start sector | End sector
---------------------------------------------------------
1 | 00:00:00 | 07:24:09 | 0 | 33308
2 | 07:24:09 | 04:09:44 | 33309 | 52027
3 | 11:33:53 | 02:03:00 | 52028 | 61252
4 | 13:36:53 | 01:25:44 | 61253 | 67671
5 | 15:02:22 | 02:29:02 | 67672 | 78848
6 | 17:31:24 | 03:06:04 | 78849 | 92802
7 | 20:37:28 | 01:30:34 | 92803 | 99586
8 | 22:07:62 | 05:22:29 | 99587 | 123765
9 | 27:30:16 | 04:16:22 | 123766 | 142987
10 | 31:46:38 | 02:26:40 | 142988 | 153977
11 | 34:13:03 | 02:32:13 | 153978 | 165390
12 | 36:45:16 | 05:15:44 | 165391 | 189059
13 | 42:00:60 | 03:38:29 | 189060 | 205438
14 | 45:39:14 | 01:25:65 | 205439 | 211878
15 | 47:05:04 | 03:31:35 | 211879 | 227738
16 | 50:36:39 | 01:50:00 | 227739 | 235988
17 | 52:26:39 | 02:01:36 | 235989 | 245099
18 | 54:28:00 | 04:17:58 | 245100 | 264432
19 | 58:45:58 | 03:36:65 | 264433 | 280697
20 | 62:22:48 | 02:31:24 | 280698 | 292046
21 | 64:53:72 | 01:30:42 | 292047 | 298838
22 | 66:24:39 | 02:56:43 | 298839 | 312081
23 | 69:21:07 | 02:07:24 | 312082 | 321630
24 | 71:28:31 | 04:10:42 | 321631 | 340422
AccurateRip Summary
Disc not found in AccurateRip DB.
All Tracks
Album gain : 3.95 dB
Peak : 0.999969
Statistics
Read error : 0
Jitter error (maybe fixed) : 0
Retry sector count : 0
Damaged sector count : 0
Track 01
Filename : /Volumes/Storeroom/To Upload/Rosemary Joshua; Christophe Rousset: Les Talens Lyriques - Harmonia Sacra [2012_FLAC]/01 Purcell: Tell Me, Some Pitying Angel (The Blessed Virgin's Expostulation).flac
Pre-gap length : 00:02:00
Track gain : 2.82 dB
Peak : 0.959869
CRC32 hash (test run) : A92E448B
CRC32 hash : A92E448B
CRC32 hash (skip zero) : E36F23D0
AccurateRip v1 signature : 27C441FC
AccurateRip v2 signature : 3206BE93
->Track not present in AccurateRip database.
Statistics
Read error : 0
Jitter error (maybe fixed) : 0
Retry sector count : 0
Damaged sector count : 0
Track 02
Filename : /Volumes/Storeroom/To Upload/Rosemary Joshua; Christophe Rousset: Les Talens Lyriques - Harmonia Sacra [2012_FLAC]/02 Purcell: In The Black, Dismal Dungeon Of Despair.flac
Track gain : 0.89 dB
Peak : 0.999969
CRC32 hash (test run) : 253A01BB
CRC32 hash : 253A01BB
CRC32 hash (skip zero) : 4BE6D436
AccurateRip v1 signature : 4C39F423
AccurateRip v2 signature : 56F5A0BF
->Track not present in AccurateRip database.
Statistics
Read error : 0
Jitter error (maybe fixed) : 0
Retry sector count : 0
Damaged sector count : 0
Track 03
Filename : /Volumes/Storeroom/To Upload/Rosemary Joshua; Christophe Rousset: Les Talens Lyriques - Harmonia Sacra [2012_FLAC]/03 Purcell: We Sing To Him, Whose Wisdom Form'd The Ear.flac
Track gain : 2.49 dB
Peak : 0.775696
CRC32 hash (test run) : B3F87C52
CRC32 hash : B3F87C52
CRC32 hash (skip zero) : 18287CA6
AccurateRip v1 signature : 87E49F05
AccurateRip v2 signature : BC53C8CF
->Track not present in AccurateRip database.
Statistics
Read error : 0
Jitter error (maybe fixed) : 0
Retry sector count : 0
Damaged sector count : 0
Track 04
Filename : /Volumes/Storeroom/To Upload/Rosemary Joshua; Christophe Rousset: Les Talens Lyriques - Harmonia Sacra [2012_FLAC]/04 Purcell: Air In G Minor.flac
Track gain : 11.77 dB
Peak : 0.141418
CRC32 hash (test run) : 32AB9B3A
CRC32 hash : 32AB9B3A
CRC32 hash (skip zero) : 9058CB84
AccurateRip v1 signature : CFD6241D
AccurateRip v2 signature : EAEE56CA
->Track not present in AccurateRip database.
Statistics
Read error : 0
Jitter error (maybe fixed) : 0
Retry sector count : 0
Damaged sector count : 0
Track 05
Filename : /Volumes/Storeroom/To Upload/Rosemary Joshua; Christophe Rousset: Les Talens Lyriques - Harmonia Sacra [2012_FLAC]/05 Purcell: Great God, And Just (A Penitential Hymn).flac
Track gain : 2.43 dB
Peak : 0.611938
CRC32 hash (test run) : CFA6CD60
CRC32 hash : CFA6CD60
CRC32 hash (skip zero) : A4A2B7B4
AccurateRip v1 signature : 23D0174E
AccurateRip v2 signature : EC2BD975
->Track not present in AccurateRip database.
Statistics
Read error : 0
Jitter error (maybe fixed) : 0
Retry sector count : 0
Damaged sector count : 0
Track 06
Filename : /Volumes/Storeroom/To Upload/Rosemary Joshua; Christophe Rousset: Les Talens Lyriques - Harmonia Sacra [2012_FLAC]/06 Purcell: My Song Shall Be Alway (Psalm 89).flac
Track gain : 6.23 dB
Peak : 0.518768
CRC32 hash (test run) : 407A2824
CRC32 hash : 407A2824
CRC32 hash (skip zero) : 310A875D
AccurateRip v1 signature : D299BCE1
AccurateRip v2 signature : FBDE037E
->Track not present in AccurateRip database.
Statistics
Read error : 0
Jitter error (maybe fixed) : 0
Retry sector count : 0
Damaged sector count : 0
Track 07
Filename : /Volumes/Storeroom/To Upload/Rosemary Joshua; Christophe Rousset: Les Talens Lyriques - Harmonia Sacra [2012_FLAC]/07 Purcell: Ground In D Minor.flac
Track gain : 9.85 dB
Peak : 0.204651
CRC32 hash (test run) : 247C6F60
CRC32 hash : 247C6F60
CRC32 hash (skip zero) : D31B8EA5
AccurateRip v1 signature : 00A68A36
AccurateRip v2 signature : 0EB148BD
->Track not present in AccurateRip database.
Statistics
Read error : 0
Jitter error (maybe fixed) : 0
Retry sector count : 0
Damaged sector count : 0
Track 08
Filename : /Volumes/Storeroom/To Upload/Rosemary Joshua; Christophe Rousset: Les Talens Lyriques - Harmonia Sacra [2012_FLAC]/08 Purcell: Lord, What Is Man?.flac
Track gain : 1.70 dB
Peak : 0.822418
CRC32 hash (test run) : B43697D3
CRC32 hash : B43697D3
CRC32 hash (skip zero) : 6D8816A0
AccurateRip v1 signature : 971E9956
AccurateRip v2 signature : 2E41DEF3
->Track not present in AccurateRip database.
Statistics
Read error : 0
Jitter error (maybe fixed) : 0
Retry sector count : 0
Damaged sector count : 0
Track 09
Filename : /Volumes/Storeroom/To Upload/Rosemary Joshua; Christophe Rousset: Les Talens Lyriques - Harmonia Sacra [2012_FLAC]/09 Purcell: Let The Night Perish (Job's Curse).flac
Track gain : 4.45 dB
Peak : 0.546204
CRC32 hash (test run) : 9025564D
CRC32 hash : 9025564D
CRC32 hash (skip zero) : 8AE064AD
AccurateRip v1 signature : BB65DFB9
AccurateRip v2 signature : ACD7C0FB
->Track not present in AccurateRip database.
Statistics
Read error : 0
Jitter error (maybe fixed) : 0
Retry sector count : 0
Damaged sector count : 0
Track 10
Filename : /Volumes/Storeroom/To Upload/Rosemary Joshua; Christophe Rousset: Les Talens Lyriques - Harmonia Sacra [2012_FLAC]/10 Purcell: Chaconne In G Minor.flac
Track gain : 10.34 dB
Peak : 0.187592
CRC32 hash (test run) : 2AF148EC
CRC32 hash : 2AF148EC
CRC32 hash (skip zero) : FFFE1E1C
AccurateRip v1 signature : 4E3182FE
AccurateRip v2 signature : 88105829
->Track not present in AccurateRip database.
Statistics
Read error : 0
Jitter error (maybe fixed) : 0
Retry sector count : 0
Damaged sector count : 0
Track 11
Filename : /Volumes/Storeroom/To Upload/Rosemary Joshua; Christophe Rousset: Les Talens Lyriques - Harmonia Sacra [2012_FLAC]/11 Purcell: The Night Is Come (An Evening Hymn).flac
Track gain : 0.45 dB
Peak : 0.822784
CRC32 hash (test run) : 409001D5
CRC32 hash : 409001D5
CRC32 hash (skip zero) : 9130A92C
AccurateRip v1 signature : 365EED05
AccurateRip v2 signature : E1B0CDC4
->Track not present in AccurateRip database.
Statistics
Read error : 0
Jitter error (maybe fixed) : 0
Retry sector count : 0
Damaged sector count : 0
Track 12
Filename : /Volumes/Storeroom/To Upload/Rosemary Joshua; Christophe Rousset: Les Talens Lyriques - Harmonia Sacra [2012_FLAC]/12 Purcell: With Sick And Famish'd Eyes.flac
Track gain : 4.76 dB
Peak : 0.810760
CRC32 hash (test run) : 29EB4425
CRC32 hash : 29EB4425
CRC32 hash (skip zero) : 508BB479
AccurateRip v1 signature : 21C82FD8
AccurateRip v2 signature : 885087E1
->Track not present in AccurateRip database.
Statistics
Read error : 0
Jitter error (maybe fixed) : 0
Retry sector count : 0
Damaged sector count : 0
Track 13
Filename : /Volumes/Storeroom/To Upload/Rosemary Joshua; Christophe Rousset: Les Talens Lyriques - Harmonia Sacra [2012_FLAC]/13 Purcell: How Have I Stray'd.flac
Track gain : 3.02 dB
Peak : 0.670288
CRC32 hash (test run) : 371620A4
CRC32 hash : 371620A4
CRC32 hash (skip zero) : 26C381AF
AccurateRip v1 signature : 489C2CF1
AccurateRip v2 signature : 9861B41C
->Track not present in AccurateRip database.
Statistics
Read error : 0
Jitter error (maybe fixed) : 0
Retry sector count : 0
Damaged sector count : 0
Track 14
Filename : /Volumes/Storeroom/To Upload/Rosemary Joshua; Christophe Rousset: Les Talens Lyriques - Harmonia Sacra [2012_FLAC]/14 Purcell: Suite In G Minor - 1. Prelude.flac
Track gain : 14.20 dB
Peak : 0.110443
CRC32 hash (test run) : BA42C1D8
CRC32 hash : BA42C1D8
CRC32 hash (skip zero) : ED678F3B
AccurateRip v1 signature : FE174C57
AccurateRip v2 signature : D63D8B7C
->Track not present in AccurateRip database.
Statistics
Read error : 0
Jitter error (maybe fixed) : 0
Retry sector count : 0
Damaged sector count : 0
Track 15
Filename : /Volumes/Storeroom/To Upload/Rosemary Joshua; Christophe Rousset: Les Talens Lyriques - Harmonia Sacra [2012_FLAC]/15 Purcell: Suite In G Minor - 2. Allemande.flac
Track gain : 11.34 dB
Peak : 0.171692
CRC32 hash (test run) : BB931017
CRC32 hash : BB931017
CRC32 hash (skip zero) : 3318198C
AccurateRip v1 signature : 07859AD5
AccurateRip v2 signature : 3E372D99
->Track not present in AccurateRip database.
Statistics
Read error : 0
Jitter error (maybe fixed) : 0
Retry sector count : 0
Damaged sector count : 0
Track 16
Filename : /Volumes/Storeroom/To Upload/Rosemary Joshua; Christophe Rousset: Les Talens Lyriques - Harmonia Sacra [2012_FLAC]/16 Purcell: Suite In G Minor - 3. Courante.flac
Track gain : 10.71 dB
Peak : 0.172546
CRC32 hash (test run) : CEE372AC
CRC32 hash : CEE372AC
CRC32 hash (skip zero) : 31392C39
AccurateRip v1 signature : 0634A876
AccurateRip v2 signature : A5A733CB
->Track not present in AccurateRip database.
Statistics
Read error : 0
Jitter error (maybe fixed) : 0
Retry sector count : 0
Damaged sector count : 0
Track 17
Filename : /Volumes/Storeroom/To Upload/Rosemary Joshua; Christophe Rousset: Les Talens Lyriques - Harmonia Sacra [2012_FLAC]/17 Purcell: Suite In G Minor - 4. Sarabande.flac
Track gain : 12.62 dB
Peak : 0.137756
CRC32 hash (test run) : 98B33C09
CRC32 hash : 98B33C09
CRC32 hash (skip zero) : 33F390A4
AccurateRip v1 signature : C0721B6D
AccurateRip v2 signature : 3B9FAE83
->Track not present in AccurateRip database.
Statistics
Read error : 0
Jitter error (maybe fixed) : 0
Retry sector count : 0
Damaged sector count : 0
Track 18
Filename : /Volumes/Storeroom/To Upload/Rosemary Joshua; Christophe Rousset: Les Talens Lyriques - Harmonia Sacra [2012_FLAC]/18 Purcell: My Opening Eyes Are Purged (A Divine Song Of The Passion Of Our Saviour).flac
Track gain : 1.34 dB
Peak : 0.822357
CRC32 hash (test run) : DC935400
CRC32 hash : DC935400
CRC32 hash (skip zero) : 1DCB7AAC
AccurateRip v1 signature : FE543A71
AccurateRip v2 signature : 80664A5B
->Track not present in AccurateRip database.
Statistics
Read error : 0
Jitter error (maybe fixed) : 0
Retry sector count : 0
Damaged sector count : 0
Track 19
Filename : /Volumes/Storeroom/To Upload/Rosemary Joshua; Christophe Rousset: Les Talens Lyriques - Harmonia Sacra [2012_FLAC]/19 Purcell: How Long, Great God (The Aspiration).flac
Track gain : 5.54 dB
Peak : 0.533325
CRC32 hash (test run) : 2024EB60
CRC32 hash : 2024EB60
CRC32 hash (skip zero) : B0D4CE20
AccurateRip v1 signature : 0D2C66D4
AccurateRip v2 signature : 88B708AC
->Track not present in AccurateRip database.
Statistics
Read error : 0
Jitter error (maybe fixed) : 0
Retry sector count : 0
Damaged sector count : 0
Track 20
Filename : /Volumes/Storeroom/To Upload/Rosemary Joshua; Christophe Rousset: Les Talens Lyriques - Harmonia Sacra [2012_FLAC]/20 Purcell: Ground In C Minor.flac
Track gain : 12.96 dB
Peak : 0.139679
CRC32 hash (test run) : 3031FB12
CRC32 hash : 3031FB12
CRC32 hash (skip zero) : 6829F58F
AccurateRip v1 signature : 7F238D7D
AccurateRip v2 signature : 9EE52D56
->Track not present in AccurateRip database.
Statistics
Read error : 0
Jitter error (maybe fixed) : 0
Retry sector count : 0
Damaged sector count : 0
Track 21
Filename : /Volumes/Storeroom/To Upload/Rosemary Joshua; Christophe Rousset: Les Talens Lyriques - Harmonia Sacra [2012_FLAC]/21 Purcell: Sleep, Adam, And Take Thy Rest.flac
Track gain : 3.03 dB
Peak : 0.754517
CRC32 hash (test run) : 4318E33E
CRC32 hash : 4318E33E
CRC32 hash (skip zero) : A467B9CD
AccurateRip v1 signature : CE745C19
AccurateRip v2 signature : 8C013F54
->Track not present in AccurateRip database.
Statistics
Read error : 0
Jitter error (maybe fixed) : 0
Retry sector count : 0
Damaged sector count : 0
Track 22
Filename : /Volumes/Storeroom/To Upload/Rosemary Joshua; Christophe Rousset: Les Talens Lyriques - Harmonia Sacra [2012_FLAC]/22 Purcell: Thou Wakeful Shepherd (A Morning Hymn).flac
Track gain : 2.56 dB
Peak : 0.753754
CRC32 hash (test run) : 4DB7EE59
CRC32 hash : 4DB7EE59
CRC32 hash (skip zero) : 19CE4325
AccurateRip v1 signature : 5D5B94AB
AccurateRip v2 signature : E8871ECD
->Track not present in AccurateRip database.
Statistics
Read error : 0
Jitter error (maybe fixed) : 0
Retry sector count : 0
Damaged sector count : 0
Track 23
Filename : /Volumes/Storeroom/To Upload/Rosemary Joshua; Christophe Rousset: Les Talens Lyriques - Harmonia Sacra [2012_FLAC]/23 Purcell: The Earth Trembled (On Our Saviour's Passion).flac
Track gain : 3.54 dB
Peak : 0.995789
CRC32 hash (test run) : 87E1F443
CRC32 hash : 87E1F443
CRC32 hash (skip zero) : 63113744
AccurateRip v1 signature : AB2D7D1C
AccurateRip v2 signature : D26A5D56
->Track not present in AccurateRip database.
Statistics
Read error : 0
Jitter error (maybe fixed) : 0
Retry sector count : 0
Damaged sector count : 0
Track 24
Filename : /Volumes/Storeroom/To Upload/Rosemary Joshua; Christophe Rousset: Les Talens Lyriques - Harmonia Sacra [2012_FLAC]/24 Purcell: Now That The Sun Hath Veil'd His Light (An Evening Hymn On A Ground).flac
Track gain : 5.50 dB
Peak : 0.587372
CRC32 hash (test run) : F5C99DAF
CRC32 hash : F5C99DAF
CRC32 hash (skip zero) : 8F0B9213
AccurateRip v1 signature : 5FE0FA4B
AccurateRip v2 signature : 59AF1BDC
->Track not present in AccurateRip database.
Statistics
Read error : 0
Jitter error (maybe fixed) : 0
Retry sector count : 0
Damaged sector count : 0
No errors occurred
End of status report



Показать сообщения:    

Текущее время: 11-Дек 11:08

Часовой пояс: UTC + 3


Вы не можете начинать темы
Вы не можете отвечать на сообщения
Вы не можете редактировать свои сообщения
Вы не можете удалять свои сообщения
Вы не можете голосовать в опросах
Вы не можете прикреплять файлы к сообщениям
Вы не можете скачивать файлы