Гвидо Манули / Guido Manuli – Шесть мультфильмов [1977-1989, Италия, авторская анимация, WEBRip] original + rus sub


 

[Цитировать]

Гвидо Манули / Guido Manuli – Шесть мультфильмов
Гвидо Манули – знаменитый итальянский мультипликатор. Соратник Бруно Боццетто, с которым сделал несколько совместных фильмов. Автор множества короткометражных мультфильмов (зачастую - пикантного содержания) и лауреат фестивальных наград. Удостоен премии "David di Donatello" за сценарий к фильму "Volere Volare" / "Хотеть летать" (1991), в котором также режиссировал анимацию.
ФантаБиблия / FantaBiblical
Страна: Италия
Жанр: авторская анимация
Год выпуска: 1977
Продолжительность: 00:11:09
Описание: Библейские сюжеты повторяются на отдельно взятых планетках, и имеют альтернативное развитие.
Доп.информация: Лучший короткометражный фильм - Каталонский международный фестиваль (1977)
Качество видео: WEBRip
Формат видео: AVI
Видео: 2382 kbps, 720х528 (4:3), 25.000 fps, MPEG-4 (XviD)
Аудио: 192 kbps, 44.1 kHz, 2 channels, MPEG Audio (MP3)
Формат субтитров: softsub (SRT)

MediaInfo

General
Complete name : FantaBiblical (1977).avi
Format : AVI
Format/Info : Audio Video Interleave
File size : 206 MiB
Duration : 11mn 9s
Overall bit rate : 2 583 Kbps
Writing library : VirtualDub build 35491/release
Video
ID : 0
Format : MPEG-4 Visual
Format profile : Advanced Simple@L5
Format settings, BVOP : 2
Format settings, QPel : No
Format settings, GMC : No warppoints
Format settings, Matrix : Default (H.263)
Codec ID : XVID
Codec ID/Hint : XviD
Duration : 11mn 9s
Bit rate : 2 382 Kbps
Width : 720 pixels
Height : 528 pixels
Display aspect ratio : 4:3
Frame rate : 25.000 fps
Color space : YUV
Chroma subsampling : 4:2:0
Bit depth : 8 bits
Scan type : Progressive
Compression mode : Lossy
Bits/(Pixel*Frame) : 0.251
Stream size : 190 MiB (92%)
Writing library : XviD 64
Audio
ID : 1
Format : MPEG Audio
Format version : Version 1
Format profile : Layer 3
Mode : Joint stereo
Codec ID : 55
Codec ID/Hint : MP3
Duration : 11mn 9s
Bit rate mode : Constant
Bit rate : 192 Kbps
Channel(s) : 2 channels
Sampling rate : 44.1 KHz
Compression mode : Lossy
Stream size : 15.3 MiB (7%)
Alignment : Split accross interleaves
Interleave, duration : 40 ms (1.00 video frame)
Interleave, preload duration : 500 ms

Скриншот c названием фильма

Скриншоты

Эрекция / Erection
Страна: Италия
Год выпуска: 1981
Продолжительность: 00:04:53
Перевод: субтитры (alex.n42)
Cубтитры: русские
Описание: Мужчина приглашает женщину к себе домой и демонстрирует ей фильм про эрекцию.
Качество видео: WEBRip
Формат видео: AVI
Видео: 2318 kbps, 720х544 (4:3), 24.000 fps, MPEG-4 (XviD)
Аудио: 192 kbps, 44.1 kHz, 2 channels, MPEG Audio (MP3)
Формат субтитров: softsub (SRT)

MediaInfo

General
Complete name : Erection (1981).avi
Format : AVI
Format/Info : Audio Video Interleave
File size : 88.0 MiB
Duration : 4mn 53s
Overall bit rate : 2 519 Kbps
Writing library : VirtualDub build 35491/release
Video
ID : 0
Format : MPEG-4 Visual
Format profile : Advanced Simple@L5
Format settings, BVOP : 2
Format settings, QPel : No
Format settings, GMC : No warppoints
Format settings, Matrix : Default (H.263)
Codec ID : XVID
Codec ID/Hint : XviD
Duration : 4mn 53s
Bit rate : 2 318 Kbps
Width : 720 pixels
Height : 544 pixels
Display aspect ratio : 4:3
Frame rate : 25.000 fps
Color space : YUV
Chroma subsampling : 4:2:0
Bit depth : 8 bits
Scan type : Progressive
Compression mode : Lossy
Bits/(Pixel*Frame) : 0.237
Stream size : 81.0 MiB (92%)
Writing library : XviD 64
Audio
ID : 1
Format : MPEG Audio
Format version : Version 1
Format profile : Layer 3
Mode : Joint stereo
Codec ID : 55
Codec ID/Hint : MP3
Duration : 4mn 53s
Bit rate mode : Constant
Bit rate : 192 Kbps
Channel(s) : 2 channels
Sampling rate : 44.1 KHz
Compression mode : Lossy
Stream size : 6.70 MiB (8%)
Alignment : Split accross interleaves
Interleave, duration : 40 ms (1.00 video frame)
Interleave, preload duration : 500 ms

Скриншот c названием фильма

Скриншоты

Пример субтитров

1
00:00:00,750 --> 00:00:03,020
ЭРЕКЦИЯ
2
00:01:14,960 --> 00:01:18,650
ЭРЕКЦИЯ
(КАЖДОМУ - СВОЁ)
3
00:01:20,050 --> 00:01:21,980
ШУТНИК
4
00:01:27,880 --> 00:01:29,390
МУЖЧИНА В ДОМЕ
5
00:01:34,080 --> 00:01:35,630
АДАМ
6
00:01:40,080 --> 00:01:41,550
СКУПОЙ
7
00:01:46,410 --> 00:01:47,750
В ПОТЬМАХ
8
00:01:50,240 --> 00:01:51,970
РОМАНТИК
9
00:01:56,180 --> 00:01:57,440
РЫБАК
10
00:02:01,220 --> 00:02:02,760
КОВАРНЫЙ
11
00:02:07,200 --> 00:02:08,800
ПЬЯНИЦА
12
00:02:14,220 --> 00:02:15,840
ФРАНКЕНШТЕЙН
13
00:02:22,390 --> 00:02:24,000
ЛЕНТЯЙ
Лишь поцелуй / Solo un bacio
Страна: Италия
Год выпуска: 1983
Продолжительность: 00:05:27
Описание: Похотливый мультипликатор (в исполнении самого Манули) проникает в свой рисунок и домогается Белоснежку.
Доп.информация: Приз критиков на Фестивале в Анси (1983)
Качество видео: WEBRip
Формат видео: AVI
Видео: 2363 kbps, 704х528 (4:3), 25.000 fps, MPEG-4 (XviD)
Аудио: 192 kbps, 44.1 kHz, 2 channels, MPEG Audio (MP3)

MediaInfo

General
Complete name : Solo un bacio (1983).avi
Format : AVI
Format/Info : Audio Video Interleave
File size : 100 MiB
Duration : 5mn 27s
Overall bit rate : 2 565 Kbps
Writing library : VirtualDub build 35491/release
Video
ID : 0
Format : MPEG-4 Visual
Format profile : Advanced Simple@L5
Format settings, BVOP : 2
Format settings, QPel : No
Format settings, GMC : No warppoints
Format settings, Matrix : Default (H.263)
Codec ID : XVID
Codec ID/Hint : XviD
Duration : 5mn 27s
Bit rate : 2 363 Kbps
Width : 704 pixels
Height : 528 pixels
Display aspect ratio : 4:3
Frame rate : 25.000 fps
Color space : YUV
Chroma subsampling : 4:2:0
Bit depth : 8 bits
Scan type : Progressive
Compression mode : Lossy
Bits/(Pixel*Frame) : 0.254
Stream size : 92.2 MiB (92%)
Writing library : XviD 64
Audio
ID : 1
Format : MPEG Audio
Format version : Version 1
Format profile : Layer 3
Mode : Joint stereo
Codec ID : 55
Codec ID/Hint : MP3
Duration : 5mn 27s
Bit rate mode : Constant
Bit rate : 192 Kbps
Channel(s) : 2 channels
Sampling rate : 44.1 KHz
Compression mode : Lossy
Stream size : 7.48 MiB (7%)
Alignment : Split accross interleaves
Interleave, duration : 40 ms (1.00 video frame)
Interleave, preload duration : 500 ms

Скриншот c названием фильма

Скриншоты

Инкуб / Incubus
Страна: Италия
Год выпуска: 1985
Продолжительность: 00:05:27
Описание: Человек ложится спать и становится героем всевозможных кошмаров.
Качество видео: WEBRip
Формат видео: AVI
Видео: 2356 kbps, 704х544 (1.294), 25.000 fps, MPEG-4 (XviD)
Аудио: 192 kbps, 44.1 kHz, 2 channels, MPEG Audio (MP3)

MediaInfo

General
Complete name : Incubus (1985).avi
Format : AVI
Format/Info : Audio Video Interleave
File size : 99.8 MiB
Duration : 5mn 27s
Overall bit rate : 2 558 Kbps
Writing library : VirtualDub build 35491/release
Video
ID : 0
Format : MPEG-4 Visual
Format profile : Advanced Simple@L5
Format settings, BVOP : 2
Format settings, QPel : No
Format settings, GMC : No warppoints
Format settings, Matrix : Default (H.263)
Codec ID : XVID
Codec ID/Hint : XviD
Duration : 5mn 27s
Bit rate : 2 356 Kbps
Width : 704 pixels
Height : 544 pixels
Display aspect ratio : 1.294
Frame rate : 25.000 fps
Color space : YUV
Chroma subsampling : 4:2:0
Bit depth : 8 bits
Scan type : Progressive
Compression mode : Lossy
Bits/(Pixel*Frame) : 0.246
Stream size : 91.9 MiB (92%)
Writing library : XviD 64
Audio
ID : 1
Format : MPEG Audio
Format version : Version 1
Format profile : Layer 3
Mode : Joint stereo
Codec ID : 55
Codec ID/Hint : MP3
Duration : 5mn 27s
Bit rate mode : Constant
Bit rate : 192 Kbps
Channel(s) : 2 channels
Sampling rate : 44.1 KHz
Compression mode : Lossy
Stream size : 7.48 MiB (7%)
Alignment : Split accross interleaves
Interleave, duration : 40 ms (1.00 video frame)
Interleave, preload duration : 500 ms

Скриншот c названием фильма

Скриншоты

Плюс один, минус один / +1 -1
Страна: Италия
Год выпуска: 1987
Продолжительность: 00:07:16
Описание: События жизни не очень удачливого человека. И затем - те же события, если бы он не родился.
Доп.информация: Перевод финальной фразы: "Жизнь это фильм. Без одного из нас это другой фильм".
Качество видео: WEBRip
Формат видео: AVI
Видео: 2344 kbps, 704х528 (4:3), 25.000 fps, MPEG-4 (XviD)
Аудио: 192 kbps, 44.1 kHz, 2 channels, MPEG Audio (MP3)

MediaInfo

General
Complete name : 1 -1 (1987).avi
Format : AVI
Format/Info : Audio Video Interleave
File size : 132 MiB
Duration : 7mn 16s
Overall bit rate : 2 546 Kbps
Writing library : VirtualDub build 35491/release
Video
ID : 0
Format : MPEG-4 Visual
Format profile : Advanced Simple@L5
Format settings, BVOP : 2
Format settings, QPel : No
Format settings, GMC : No warppoints
Format settings, Matrix : Default (H.263)
Codec ID : XVID
Codec ID/Hint : XviD
Duration : 7mn 16s
Bit rate : 2 344 Kbps
Width : 704 pixels
Height : 528 pixels
Display aspect ratio : 4:3
Frame rate : 25.000 fps
Color space : YUV
Chroma subsampling : 4:2:0
Bit depth : 8 bits
Scan type : Progressive
Compression mode : Lossy
Bits/(Pixel*Frame) : 0.252
Stream size : 122 MiB (92%)
Writing library : XviD 64
Audio
ID : 1
Format : MPEG Audio
Format version : Version 1
Format profile : Layer 3
Mode : Joint stereo
Codec ID : 55
Codec ID/Hint : MP3
Duration : 7mn 15s
Bit rate mode : Constant
Bit rate : 192 Kbps
Channel(s) : 2 channels
Sampling rate : 44.1 KHz
Compression mode : Lossy
Stream size : 9.96 MiB (8%)
Alignment : Split accross interleaves
Interleave, duration : 40 ms (1.00 video frame)
Interleave, preload duration : 500 ms

Скриншот c названием фильма

Скриншоты

Инструкция по использованию / Istruzioni per l'uso
Страна: Италия
Год выпуска: 1989
Продолжительность: 00:03:09
Описание: Мультфильм, предваряющийся эпиграфом: "Они дали нам задницу, но мы потеряли буклет с инструкцией по её использованию".
Качество видео: WEBRip
Формат видео: AVI
Видео: 2374 kbps, 720х544 (4:3), 25.000 fps, MPEG-4 (XviD)
Аудио: 192 kbps, 44.1 kHz, 2 channels, MPEG Audio (MP3)

MediaInfo

General
Complete name : Istruzioni per l'uso (1989).avi
Format : AVI
Format/Info : Audio Video Interleave
File size : 58.2 MiB
Duration : 3mn 9s
Overall bit rate : 2 576 Kbps
Writing library : VirtualDub build 35491/release
Video
ID : 0
Format : MPEG-4 Visual
Format profile : Advanced Simple@L5
Format settings, BVOP : 2
Format settings, QPel : No
Format settings, GMC : No warppoints
Format settings, Matrix : Default (H.263)
Codec ID : XVID
Codec ID/Hint : XviD
Duration : 3mn 9s
Bit rate : 2 374 Kbps
Width : 720 pixels
Height : 544 pixels
Display aspect ratio : 4:3
Frame rate : 25.000 fps
Color space : YUV
Chroma subsampling : 4:2:0
Bit depth : 8 bits
Scan type : Progressive
Compression mode : Lossy
Bits/(Pixel*Frame) : 0.242
Stream size : 53.7 MiB (92%)
Writing library : XviD 64
Audio
ID : 1
Format : MPEG Audio
Format version : Version 1
Format profile : Layer 3
Mode : Joint stereo
Codec ID : 55
Codec ID/Hint : MP3
Duration : 3mn 9s
Bit rate mode : Constant
Bit rate : 192 Kbps
Channel(s) : 2 channels
Sampling rate : 44.1 KHz
Compression mode : Lossy
Stream size : 4.33 MiB (7%)
Alignment : Split accross interleaves
Interleave, duration : 40 ms (1.00 video frame)
Interleave, preload duration : 500 ms

Скриншот c названием фильма

Скриншоты




Показать сообщения:    

Текущее время: 10-Дек 23:28

Часовой пояс: UTC + 3


Вы не можете начинать темы
Вы не можете отвечать на сообщения
Вы не можете редактировать свои сообщения
Вы не можете удалять свои сообщения
Вы не можете голосовать в опросах
Вы не можете прикреплять файлы к сообщениям
Вы не можете скачивать файлы