«Славься, наш могучий край!» Детский хор России, Симфонический оркестр под управлением Валерия Гергиева. Концерт в Государственном Кремлевском дворце 25 декабря 2015 года [2016, Orchestral/Vocal/Choral, DVB]


Статистика раздачи [Обновить пиров]
Размер:  1.66 GB   |    Зарегистрирован:  10 месяцев 29 дней   |    Скачан:  4 раза
Сидов:  1  [  0 KB/s  ]   Подробная статистика пиров
 
   
 
 
 

[Цитировать]

«Славься, наш могучий край!» Детский хор России, Симфонический оркестр под управлением Валерия Гергиева. Концерт в Государственном Кремлевском дворце 25 декабря 2015 года
Год выпуска: 2016
Страна: Россия
Телеканал: Россия К (Культура)
Дата и время первого выхода в эфир: 07.01.2015 16:30
Жанр: Orchestral/Vocal/Choral
Продолжительность: 00:58:30
Язык: Русский
Треклист:
  • Вступительное слово Президента России Владимира Путина
  • «Славься, наш могучий край!» (С. Прокофьев — А. Петренко)
  • «Летите, голуби» (И. Дунаевский — М. Матусовский)
  • «Хор хороший» (А. Пахмутова — Н. Добронравов)
  • «Здравствуй, русская зима!» (А. Пахмутова — Н. Добронравов)
  • «Трус не играет в хоккей» (А. Пахмутова — С. Гребенников, Н. Добронравов)
  • «С чего начинается Родина?» (В. Баснер — М. Матусовский)
  • «Вальс снежных хлопьев», из балета «Щелкунчик» (П. Чайковский)
  • «Поёт зима», из поэмы «Памяти Сергея Есенина» (Г. Свиридов — С. Есенин)
  • «Зима пришла» (И. Дунаевский — А. Арго)
  • «Московское небо» (А. Лепин — Г. Рублёв)
  • Фантазия для детского хора на темы произведений С. Прокофьева
  • «Широка страна моя родная» (И. Дунаевский — В. Лебедев-Кумач)Из вступительного слова Президента России:
    Сегодня в Кремле начинаются новогодние торжества, и замечательной частью этого праздника стал концерт Детского хора России.
    Этот коллектив действительно уникальный, он объединяет тысячу юных исполнителей, которые представляют практически всю нашу огромную страну, олицетворяет собой молодую, творческую энергию и неисчерпаемый талант России, возрождение по‑настоящему массового хорового движения.
    Хочу от души поблагодарить всех, кто поддерживает и продвигает это важное начинание, особенно в регионах нашей страны. Уверен, такая работа будет плодотворно продолжаться.
    Хор, где все как один, — это яркий символ взаимопонимания, единения и согласия, абсолютных и неделимых ценностей нашего народа.
    Все участники коллектива прошли серьёзный конкурсный отбор и, несмотря на молодость, уже имеют богатый опыт выступлений на самых разных, причём заметных, площадках страны, работают с ведущими мастерами отечественной культуры.
    Знаю, что у хора большие планы на будущее. И в наступающем году он станет активным участником всех самых ярких событий культурной, музыкальной жизни нашей страны. Особое место среди них занимает 125‑летие со дня рождения великого русского композитора Сергея Сергеевича Прокофьева. Нынешний концерт, по сути, открывает череду торжеств, приуроченных к этому юбилею.
    Подчеркну, что сопровождать выступление хора будет симфонический оркестр Мариинского театра под управлением создателя, можно сказать, вдохновителя этого проекта маэстро Гергиева.
    Дорогие друзья! Хочу пожелать вам самых приятных впечатлений от предстоящего вечера, а нашим молодым, юным артистам — успехов.
    Доп. информация:
    В концерте также приняла участие народная артистка СССР, композитор Александра Пахмутова.
    См. также:
    Детский хор России — Концерт 8 января 2014 года на новой сцене Мариинского театра (Live)
    Сэмпл: https://www.sendspace.com/file/wxfiuw
    Качество видео: DVB
    Формат/Контейнер: MPG
    Видео кодек: MPEG2
    Аудио кодек: MP2
    Видео поток: MPEG 2, 720x576 (4:3), 3 796 Kbps, 25 fps
    Аудио поток: MP2, 48.0 KHz, 192 Kbps, 2 ch

    MediaInfo

    General
    Complete name : D:\2015-12-25 Славься, наш могучий край! Детский хор России, симф. орк. под управлением В. Гергиева (Россия К).mpg
    Format : MPEG-PS
    File size : 1.66 GiB
    Duration : 58mn 29s
    Overall bit rate mode : Variable
    Overall bit rate : 4 069 Kbps
    Video
    ID : 224 (0xE0)
    Format : MPEG Video
    Format version : Version 2
    Format profile : Main@Main
    Format settings, BVOP : Yes
    Format settings, Matrix : Custom
    Format settings, GOP : Variable
    Format settings, picture st : Frame
    Duration : 58mn 29s
    Bit rate mode : Variable
    Bit rate : 3 796 Kbps
    Maximum bit rate : 4 000 Kbps
    Width : 720 pixels
    Height : 576 pixels
    Display aspect ratio : 4:3
    Frame rate : 25.000 fps
    Standard : PAL
    Color space : YUV
    Chroma subsampling : 4:2:0
    Bit depth : 8 bits
    Scan type : Interlaced
    Scan order : Top Field First
    Compression mode : Lossy
    Bits/(Pixel*Frame) : 0.366
    Time code of first frame : 00:00:00:00
    Time code source : Group of pictures header
    GOP, Open/Closed : Open
    GOP, Open/Closed of first f : Closed
    Stream size : 1.55 GiB (93%)
    Audio
    ID : 192 (0xC0)
    Format : MPEG Audio
    Format version : Version 1
    Format profile : Layer 2
    Mode : Joint stereo
    Mode extension : Intensity Stereo + MS Stereo
    Duration : 58mn 29s
    Bit rate mode : Constant
    Bit rate : 192 Kbps
    Channel(s) : 2 channels
    Sampling rate : 48.0 KHz
    Compression mode : Lossy
    Stream size : 80.3 MiB (5%)
    [spoiler="Скриншоты
  • [teatrix.ru].t12644.torrent 
    Торрент: Зарегистрирован [ 2016-01-07 20:15 ] · E1A12CC6004FDE0F42238C71B0775AF02F9B36AF

    Скачать .torrent

    Скачать

    17 KB

    Статус: проверено
    Скачан: 4 раз
    Размер: 1.66 GB
    terms.php



    Быстрый ответ

    Имя:

          
    Для отправки сообщений необходимо включить JavaScript
    Показать сообщения:    

    Текущее время: 06-Дек 13:13

    Часовой пояс: UTC + 3


    Вы можете начинать темы
    Вы можете отвечать на сообщения
    Вы не можете редактировать свои сообщения
    Вы не можете удалять свои сообщения
    Вы не можете голосовать в опросах
    Вы не можете прикреплять файлы к сообщениям
    Вы можете скачивать файлы