(Classical/Orchestral/Cello) Dvorak: Symphony No.9 'From the New World'; Cello Concerto (Orchestra dell' Accademia Nazionale di Santa Cecilia • Antonio Pappano, Mario Brunello) [EMI] - 2012, FLAC (tracks+.cue) lossless


 

[Цитировать]

Orchestra dell' Accademia Nazionale di Santa Cecilia • Antonio Pappano —
Antonin Dvorak: Symphony No.9 'From the New World'; Cello Concerto
-Classical/Orchestral/Cello • EMI • 9141022 • 2012 • lossless • FLAC • tracks+.cue • 00:44:05 | 00:42:33 • what.cd • сканов нет
-01-04. Symphony No. 9 in E minor, Op. 95 'From the New World'
01-03. Cello Concerto in B minor, Op. 104 (first edition)
-Orchestra dell' Accademia Nazionale di Santa Cecilia || Sir Antonio Pappano - conductor || Mario Brunello - cello-Об альбоме-

logscue - CD1

TITLE "Dvorak: Symphony No.9 & Cello Concerto [Disc 1]"
PERFORMER "Mario Brunello & Antonio Pappano"
CATALOG 5099991410320
REM GENRE "Classical"
REM DATE "2012"
REM DISCNUMBER 1
REM TOTALDISCS 2
REM DISCID 330A5504
REM REPLAYGAIN_ALBUM_GAIN -2.12 dB
REM REPLAYGAIN_ALBUM_PEAK 0.953278
FILE "01 Symphony No. 9 in E Minor "From the New World", Op. 95: I Adagio - Allegro molto.flac" WAVE
TRACK 01 AUDIO
TITLE "Symphony No. 9 in E Minor "From the New World", Op. 95: I Adagio - Allegro molto"
SONGWRITER "Antonín Dvořák"
ISRC GBAYC1202629
REM REPLAYGAIN_TRACK_GAIN -2.32 dB
REM REPLAYGAIN_TRACK_PEAK 0.953278
INDEX 01 00:00:00
FILE "02 Symphony No. 9 in E Minor "From the New World", Op. 95: II Largo.flac" WAVE
TRACK 02 AUDIO
TITLE "Symphony No. 9 in E Minor "From the New World", Op. 95: II Largo"
SONGWRITER "Antonín Dvořák"
ISRC GBAYC1202630
REM REPLAYGAIN_TRACK_GAIN 2.66 dB
REM REPLAYGAIN_TRACK_PEAK 0.792419
INDEX 01 00:00:00
FILE "03 Symphony No. 9 in E Minor "From the New World", Op. 95: III Scherzo (Molto vivace).flac" WAVE
TRACK 03 AUDIO
TITLE "Symphony No. 9 in E Minor "From the New World", Op. 95: III Scherzo (Molto vivace)"
SONGWRITER "Antonín Dvořák"
ISRC GBAYC1202631
REM REPLAYGAIN_TRACK_GAIN -1.81 dB
REM REPLAYGAIN_TRACK_PEAK 0.923035
INDEX 01 00:00:00
FILE "04 Symphony No. 9 in E Minor "From the New World", Op. 95: IV Allegro con fuoco.flac" WAVE
TRACK 04 AUDIO
TITLE "Symphony No. 9 in E Minor "From the New World", Op. 95: IV Allegro con fuoco"
SONGWRITER "Antonín Dvořák"
ISRC GBAYC1202632
REM REPLAYGAIN_TRACK_GAIN -2.85 dB
REM REPLAYGAIN_TRACK_PEAK 0.889496
INDEX 01 00:00:00

cue - CD2

TITLE "Dvorak: Symphony No.9 & Cello Concerto [Disc 2]"
PERFORMER "Mario Brunello & Antonio Pappano"
CATALOG 5099991410528
REM GENRE "Classical"
REM DATE "2012"
REM DISCNUMBER 2
REM TOTALDISCS 2
REM DISCID 2A09F903
REM REPLAYGAIN_ALBUM_GAIN 1.22 dB
REM REPLAYGAIN_ALBUM_PEAK 0.886902
FILE "01 Cello Concerto in B minor, Op. 104: I. Allegro.flac" WAVE
TRACK 01 AUDIO
TITLE "Cello Concerto in B minor, Op. 104: I. Allegro"
SONGWRITER "Antonín Dvořák"
ISRC GBAYC1202634
REM REPLAYGAIN_TRACK_GAIN 0.48 dB
REM REPLAYGAIN_TRACK_PEAK 0.694183
INDEX 01 00:00:00
FILE "02 Cello Concerto in B minor, Op. 104: II. Adagio ma non troppo.flac" WAVE
TRACK 02 AUDIO
TITLE "Cello Concerto in B minor, Op. 104: II. Adagio ma non troppo"
SONGWRITER "Antonín Dvořák"
ISRC GBAYC1202635
REM REPLAYGAIN_TRACK_GAIN 4.68 dB
REM REPLAYGAIN_TRACK_PEAK 0.586823
INDEX 01 00:00:00
FILE "03 Cello Concerto in B minor, Op. 104: III. Finale (Allegro moderato).flac" WAVE
TRACK 03 AUDIO
TITLE "Cello Concerto in B minor, Op. 104: III. Finale (Allegro moderato)"
SONGWRITER "Antonín Dvořák"
ISRC GBAYC1202636
REM REPLAYGAIN_TRACK_GAIN 0.93 dB
REM REPLAYGAIN_TRACK_PEAK 0.886902
INDEX 01 00:00:00

EAC - CD1

X Lossless Decoder version 20130127 (142.3)
XLD extraction logfile from 2013-05-10 00:31:19 -0400
Mario Brunello & Antonio Pappano / Dvorak: Symphony No.9 & Cello Concerto [Disc 1]
Used drive : MATSHITA DVD-R UJ-898 (revision HE13)
Media type : Pressed CD
Ripper mode : XLD Secure Ripper
Disable audio cache : OK for the drive with a cache less than 1375KiB
Make use of C2 pointers : NO
Read offset correction : 102
Max retry count : 20
Gap status : Analyzed, Appended (except HTOA)
TOC of the extracted CD
Track | Start | Length | Start sector | End sector
---------------------------------------------------------
1 | 00:00:00 | 12:22:03 | 0 | 55652
2 | 12:22:03 | 12:45:24 | 55653 | 113051
3 | 25:07:27 | 07:33:48 | 113052 | 147074
4 | 32:41:00 | 11:24:47 | 147075 | 198421
AccurateRip Summary
Disc not found in AccurateRip DB.
All Tracks
Album gain : -2.12 dB
Peak : 0.953278
Statistics
Read error : 0
Jitter error (maybe fixed) : 0
Retry sector count : 0
Damaged sector count : 0
Track 01
Filename : /Users/erwinfigueroa/Transmission/Uploaded/Mario Brunello & Antonio Pappano - Dvorak: Symphony No.9 & Cello Concerto [Disc 1] (2012) [V0]/01 Symphony No. 9 in E Minor "From the New World", Op. 95: I Adagio - Allegro molto.mp3
/Users/erwinfigueroa/Transmission/Uploaded/Mario Brunello & Antonio Pappano - Dvorak: Symphony No.9 & Cello Concerto [Disc 1] (2012) [FLAC]/01 Symphony No. 9 in E Minor "From the New World", Op. 95: I Adagio - Allegro molto.flac
Pre-gap length : 00:02:00
Track gain : -2.32 dB
Peak : 0.953278
CRC32 hash (test run) : B29C90BE
CRC32 hash : B29C90BE
CRC32 hash (skip zero) : 5B1EC256
AccurateRip v1 signature : 1E5A53B7
AccurateRip v2 signature : 69D9CCA1
->Track not present in AccurateRip database.
Statistics
Read error : 0
Jitter error (maybe fixed) : 0
Retry sector count : 0
Damaged sector count : 0
Track 02
Filename : /Users/erwinfigueroa/Transmission/Uploaded/Mario Brunello & Antonio Pappano - Dvorak: Symphony No.9 & Cello Concerto [Disc 1] (2012) [V0]/02 Symphony No. 9 in E Minor "From the New World", Op. 95: II Largo.mp3
/Users/erwinfigueroa/Transmission/Uploaded/Mario Brunello & Antonio Pappano - Dvorak: Symphony No.9 & Cello Concerto [Disc 1] (2012) [FLAC]/02 Symphony No. 9 in E Minor "From the New World", Op. 95: II Largo.flac
Track gain : 2.66 dB
Peak : 0.792419
CRC32 hash (test run) : 3264D818
CRC32 hash : 3264D818
CRC32 hash (skip zero) : 4FB7ED1C
AccurateRip v1 signature : 20257420
AccurateRip v2 signature : C85D1E27
->Track not present in AccurateRip database.
Statistics
Read error : 0
Jitter error (maybe fixed) : 0
Retry sector count : 0
Damaged sector count : 0
Track 03
Filename : /Users/erwinfigueroa/Transmission/Uploaded/Mario Brunello & Antonio Pappano - Dvorak: Symphony No.9 & Cello Concerto [Disc 1] (2012) [V0]/03 Symphony No. 9 in E Minor "From the New World", Op. 95: III Scherzo (Molto vivace).mp3
/Users/erwinfigueroa/Transmission/Uploaded/Mario Brunello & Antonio Pappano - Dvorak: Symphony No.9 & Cello Concerto [Disc 1] (2012) [FLAC]/03 Symphony No. 9 in E Minor "From the New World", Op. 95: III Scherzo (Molto vivace).flac
Track gain : -1.81 dB
Peak : 0.923035
CRC32 hash (test run) : 91E7D6C1
CRC32 hash : 91E7D6C1
CRC32 hash (skip zero) : FDC4F5EE
AccurateRip v1 signature : 0E19F88F
AccurateRip v2 signature : 7AAE7E0B
->Track not present in AccurateRip database.
Statistics
Read error : 0
Jitter error (maybe fixed) : 0
Retry sector count : 0
Damaged sector count : 0
Track 04
Filename : /Users/erwinfigueroa/Transmission/Uploaded/Mario Brunello & Antonio Pappano - Dvorak: Symphony No.9 & Cello Concerto [Disc 1] (2012) [V0]/04 Symphony No. 9 in E Minor "From the New World", Op. 95: IV Allegro con fuoco.mp3
/Users/erwinfigueroa/Transmission/Uploaded/Mario Brunello & Antonio Pappano - Dvorak: Symphony No.9 & Cello Concerto [Disc 1] (2012) [FLAC]/04 Symphony No. 9 in E Minor "From the New World", Op. 95: IV Allegro con fuoco.flac
Track gain : -2.85 dB
Peak : 0.889496
CRC32 hash (test run) : 1A780DD8
CRC32 hash : 1A780DD8
CRC32 hash (skip zero) : 14478C14
AccurateRip v1 signature : E4F765D6
AccurateRip v2 signature : 3352CDD7
->Track not present in AccurateRip database.
Statistics
Read error : 0
Jitter error (maybe fixed) : 0
Retry sector count : 0
Damaged sector count : 0
No errors occurred
End of status report

EAC - CD2

X Lossless Decoder version 20130127 (142.3)
XLD extraction logfile from 2013-05-10 00:54:53 -0400
Mario Brunello & Antonio Pappano / Dvorak: Symphony No.9 & Cello Concerto [Disc 2]
Used drive : MATSHITA DVD-R UJ-898 (revision HE13)
Media type : Pressed CD
Ripper mode : XLD Secure Ripper
Disable audio cache : OK for the drive with a cache less than 1375KiB
Make use of C2 pointers : NO
Read offset correction : 102
Max retry count : 20
Gap status : Analyzed, Appended (except HTOA)
TOC of the extracted CD
Track | Start | Length | Start sector | End sector
---------------------------------------------------------
1 | 00:00:00 | 16:23:16 | 0 | 73740
2 | 16:23:16 | 12:14:34 | 73741 | 128824
3 | 28:37:50 | 13:55:63 | 128825 | 191512
AccurateRip Summary
Disc not found in AccurateRip DB.
All Tracks
Album gain : 1.22 dB
Peak : 0.886902
Statistics
Read error : 0
Jitter error (maybe fixed) : 0
Retry sector count : 0
Damaged sector count : 0
Track 01
Filename : /Users/erwinfigueroa/Transmission/Uploaded/Mario Brunello & Antonio Pappano - Dvorak: Symphony No.9 & Cello Concerto [Disc 2] (2012) [V0]/01 Cello Concerto in B minor, Op. 104: I. Allegro.mp3
/Users/erwinfigueroa/Transmission/Uploaded/Mario Brunello & Antonio Pappano - Dvorak: Symphony No.9 & Cello Concerto [Disc 2] (2012) [FLAC]/01 Cello Concerto in B minor, Op. 104: I. Allegro.flac
Pre-gap length : 00:02:00
Track gain : 0.48 dB
Peak : 0.694183
CRC32 hash (test run) : 204ACA28
CRC32 hash : 204ACA28
CRC32 hash (skip zero) : 4264D72F
AccurateRip v1 signature : EACD9972
AccurateRip v2 signature : C363E058
->Track not present in AccurateRip database.
Statistics
Read error : 0
Jitter error (maybe fixed) : 0
Retry sector count : 0
Damaged sector count : 0
Track 02
Filename : /Users/erwinfigueroa/Transmission/Uploaded/Mario Brunello & Antonio Pappano - Dvorak: Symphony No.9 & Cello Concerto [Disc 2] (2012) [V0]/02 Cello Concerto in B minor, Op. 104: II. Adagio ma non troppo.mp3
/Users/erwinfigueroa/Transmission/Uploaded/Mario Brunello & Antonio Pappano - Dvorak: Symphony No.9 & Cello Concerto [Disc 2] (2012) [FLAC]/02 Cello Concerto in B minor, Op. 104: II. Adagio ma non troppo.flac
Track gain : 4.68 dB
Peak : 0.586823
CRC32 hash (test run) : 749E93E6
CRC32 hash : 749E93E6
CRC32 hash (skip zero) : B006DE87
AccurateRip v1 signature : 5AB5F2F5
AccurateRip v2 signature : 2B70558C
->Track not present in AccurateRip database.
Statistics
Read error : 0
Jitter error (maybe fixed) : 0
Retry sector count : 0
Damaged sector count : 0
Track 03
Filename : /Users/erwinfigueroa/Transmission/Uploaded/Mario Brunello & Antonio Pappano - Dvorak: Symphony No.9 & Cello Concerto [Disc 2] (2012) [V0]/03 Cello Concerto in B minor, Op. 104: III. Finale (Allegro moderato).mp3
/Users/erwinfigueroa/Transmission/Uploaded/Mario Brunello & Antonio Pappano - Dvorak: Symphony No.9 & Cello Concerto [Disc 2] (2012) [FLAC]/03 Cello Concerto in B minor, Op. 104: III. Finale (Allegro moderato).flac
Track gain : 0.93 dB
Peak : 0.886902
CRC32 hash (test run) : 9DB8E660
CRC32 hash : 9DB8E660
CRC32 hash (skip zero) : 7DDC4F79
AccurateRip v1 signature : 7D633E73
AccurateRip v2 signature : 1205868B
->Track not present in AccurateRip database.
Statistics
Read error : 0
Jitter error (maybe fixed) : 0
Retry sector count : 0
Damaged sector count : 0
No errors occurred
End of status report



Показать сообщения:    

Текущее время: 09-Дек 16:36

Часовой пояс: UTC + 3


Вы не можете начинать темы
Вы не можете отвечать на сообщения
Вы не можете редактировать свои сообщения
Вы не можете удалять свои сообщения
Вы не можете голосовать в опросах
Вы не можете прикреплять файлы к сообщениям
Вы не можете скачивать файлы