Рождество, снова / Christmas, Again (Чарльз Покель / Charles Poekel) [2014, США, драма, DVDRip] Sub Rus + Original Eng


Статистика раздачи [Обновить пиров]
Размер:  1.36 GB   |    Зарегистрирован:  10 месяцев 28 дней   |    Скачан:  0 раз

Полного источника не было: Никогда

 
   
 
 
 

[Цитировать]

Рождество, снова / Christmas, Again-Страна: США
Жанр: драма
Год выпуска: 2014
Продолжительность: 01:18:56
Перевод: Субтитры (by sonnyb)
Cубтитры: русские
Оригинальная аудиодорожка: английский-Режиссер: Чарльз Покель / Charles Poekel
В ролях: Кентукер Одли, Ханна Грос, Джейсон Шелтон, Андреа Суарез Паз-Описание: Убитый горем продавец ёлок возвращается в Нью-Йорк, надеясь оставить прошлое позади. Живя в трейлере и работая в ночную смену, он начинает скатываться по спирали вниз, пока не спасает загадочную даму, а некоторые красочные клиенты не спасают его самого от саморазрушения.-Международный кинофестиваль в Локарно - 2014:
Номинация на золотого леопарда в программе «Режиссеры настоящего» - Чарльз Покель.-Качество видео: DVDRip
Формат видео: AVI
Видео: XVID, 2267 Кбит/сек, 720х400, 24,000 кадра/сек
Аудио: MPEG Audio, 192 Кбит/сек, 2 канала

Пример субтитров

295
00:30:32,964 --> 00:30:34,198
А вы и подставки продаёте?
296
00:30:34,200 --> 00:30:36,133
Да, вам нужна?
297
00:30:41,940 --> 00:30:43,373
Как она работает?
298
00:30:43,375 --> 00:30:45,242
Закрутить три винта через отверстия.
299
00:30:45,244 --> 00:30:47,211
А затем наполнить её водой?
300
00:30:49,848 --> 00:30:51,615
Вода.
Мне нужно залить туда воду?
301
00:30:51,617 --> 00:30:54,084
Да, воду.
Заполнить водой.
302
00:30:54,086 --> 00:30:56,153
И как часто нужно заливать воду?
303
00:30:57,088 --> 00:30:59,089
Как только её там не станет.
304
00:31:14,138 --> 00:31:16,573
Привет.
У вас есть ёлка Обамы?
305
00:31:16,575 --> 00:31:18,175
Что?
306
00:31:18,177 --> 00:31:19,610
Рождественская ёлка,
которая стоит у Обамы.
307
00:31:19,612 --> 00:31:24,348
Это Колорадская ёлка, она с Огайо.
308
00:31:24,350 --> 00:31:26,016
Да, у нас есть парочка колорадских.
309
00:31:26,018 --> 00:31:27,584
А они из Огайо?
310
00:31:27,586 --> 00:31:29,653
- Да, семена из Огайо.
- О, круто.
311
00:31:29,655 --> 00:31:31,521
Она отсюда, выросла здесь.
312
00:31:31,523 --> 00:31:33,657
О, местная ёлка.
313
00:31:35,360 --> 00:31:39,329
Мне не нужно тебе говорить,
что остатки ёлок вычтутся с твоих денег.
314
00:31:40,298 --> 00:31:43,233
- Да, их разберут.
- Пока что-то не разбирают.
315
00:31:43,235 --> 00:31:44,902
Поговори с Ником, он дневник.

MediaInfo

Формат : AVI
Формат/Информация : Audio Video Interleave
Размер файла : 1,36 Гбайт
Продолжительность : 1 ч. 18 м.
Общий поток : 2469 Кбит/сек
Программа кодирования : VirtualDubMod 1.5.10.3 | www.virtualdub-fr.org || (build 2550/release)
Библиотека кодирования : VirtualDubMod build 2550/release
Видео
Идентификатор : 0
Формат : MPEG-4 Visual
Профиль формата : Advanced Simple@L5
Параметр BVOP формата : 1
Параметр QPel формата : Нет
Параметр GMC формата : Без точки перехода
Параметр матрицы формата : Default (MPEG)
Идентификатор кодека : XVID
Идентификатор кодека/Подсказка : XviD
Продолжительность : 1 ч. 18 м.
Битрейт : 2267 Кбит/сек
Ширина : 720 пикселей
Высота : 400 пикселей
Соотношение сторон 24,000 кадра/сек : 16:9
Частота кадров :
Цветовое пространство : YUV
Субдискретизация насыщенности : 4:2:0
Битовая глубина : 8 бит
Тип развёртки : Прогрессивная
Метод сжатия : С потерями
Бит/(Пиксели*Кадры) : 0.328
Размер потока : 1,25 Гбайт (92%)
Библиотека кодирования : XviD 1.2.1 (UTC 2008-12-04)
Аудио
Идентификатор : 1
Формат : MPEG Audio
Версия формата : Version 1
Профиль формата : Layer 3
Идентификатор кодека : 55
Идентификатор кодека/Подсказка : MP3
Продолжительность : 1 ч. 18 м.
Вид битрейта : Постоянный
Битрейт : 192 Кбит/сек
Каналы : 2 канала
Частота : 48,0 КГц
Метод сжатия : С потерями
Размер потока : 108 Мбайт (8%)
Выравнивание : Соединение по промежуткам
Продолжительность промежутка : 42 мс. (1,00 видеокадр)
Время предзагрузки промежутка : 504 мс.
Библиотека кодирования : LAME3.99r
Настройки программы : -m s -V 4 -q 0 -lowpass 18.6 -b 192

Скриншоты

[teatrix.ru].t12653.torrent 
Торрент: Зарегистрирован [ 2016-01-08 02:55 ] · 27AA30791D624C89593521F7E5DEDEE06C16AFEA

Скачать .torrent

Скачать

14 KB

Статус: проверено
Скачан: 0 раз
Размер: 1.36 GB
terms.php



Быстрый ответ

Имя:

      
Для отправки сообщений необходимо включить JavaScript
Показать сообщения:    

Текущее время: 05-Дек 07:31

Часовой пояс: UTC + 3


Вы можете начинать темы
Вы можете отвечать на сообщения
Вы не можете редактировать свои сообщения
Вы не можете удалять свои сообщения
Вы не можете голосовать в опросах
Вы не можете прикреплять файлы к сообщениям
Вы можете скачивать файлы