[TR24][OF] Antonio Vivaldi - Recorder Concertos (Jan Bjoranger; Ensemble 1B1; Jonas Paradiso, Anna Orchestras) - 2015 (Baroque, Orchestal, Chamber, Classical)


Статистика раздачи [Обновить пиров]
Размер:  1.3 GB   |    Зарегистрирован:  10 месяцев 30 дней   |    Скачан:  0 раз

Полного источника не было: Никогда

 
   
 
 
 

[Цитировать]

Antonio Vivaldi - Recorder Concertos
Формат записи/Источник записи: [TR24][OF]
Наличие водяных знаков: Нет
Год издания/переиздания диска: 2015
Жанр: Baroque, Orchestal, Classical
Издатель(лейбл): BIS Records
Продолжительность: 01:10:03
Исполнитель:
Conductor - Jan Bjøranger,
Ensemble - 1B1 (Ensemble Bjergsted 1),
Harpsichord - Anna Paradiso,
Theorbo - Jonas Nordberg.
Recorded on June/July 2014 at the Stavanger Concert Hall, Norway.
Контейнер: FLAC (*.flac)
Тип рипа: tracks
Разрядность: 24/96
Количество каналов: 2.0
Источник: eClassical

Треклист

Concerto in G major, RV443
01 I. [Allegro]
02 II. [Largo]
03 III. Allegro molto
Concerto in A minor, RV108, for recorder, 2 violins & b.c.
04 I. Allegro
05 II. [Adagio]
06 III. [Allegro]
Concerto in F major, RV442
07 I. Allegro ma non molto
08 II. Largo cantabile
09 III. Allegro 01:41
Concerto in C major, RV444
10 I. Allegro non molto
11 II. Largo
12 III. Allegro molto
Concerto in E minor, RV445
13 I. Allegro
14 II. Larghetto
15 III. [Allegro]
Concerto in D major, RV92, for recorder, violin & b.c.
16 I. Allegro
17 II. [Adagio]
18 III. [Allegro]
Concerto in C minor, RV441
19 I. Allegro non molto
20 II. Largo
21 III. [Allegro]

DR-Report

foobar2000 1.3.6 / Замер динамического диапазона (DR) 1.1.1Дата отчёта: 2016-01-07 20:15:07
--------------------------------------------------------------------------------Анализ: Laurin, Dan, Paradiso, Anna, Nordberg, Jonas / Vivaldi – Recorder Concertos (1-17) Paradiso, Anna, Nordberg, Jonas, Laurin, Dan / Vivaldi – Recorder Concertos (18-21)--------------------------------------------------------------------------------
DR Пики RMS Продолжительность трека--------------------------------------------------------------------------------DR14 -1.95 дБ -21.15 дБ 3:37 1/21-(Concerto in G major, RV443) - I. [Allegro]DR10 -8.33 дБ -21.15 дБ 3:56 2/21-(Concerto in G major, RV443) - II. [Largo]DR14 -4.27 дБ -21.10 дБ 2:57 3/21-(Concerto in G major, RV443) - III. Allegro moltoDR14 -3.77 дБ -21.60 дБ 2:42 4/21-(Concerto in A minor, RV108, for recorder, 2 violins & b.c.) - I. AllegroDR11 -8.22 дБ -23.24 дБ 2:33 5/21-(Concerto in A minor, RV108, for recorder, 2 violins & b.c.) - II. [Adagio]DR14 -2.29 дБ -20.85 дБ 2:22 6/21-(Concerto in A minor, RV108, for recorder, 2 violins & b.c.) - III. [Allegro]DR11 -6.37 дБ -22.63 дБ 3:33 7/21-(Concerto in F major, RV442) - I. Allegro ma non moltoDR12 -6.00 дБ -21.35 дБ 3:16 12/21-(Concerto in C major, RV444) - III. Allegro moltoDR12 -3.08 дБ -20.12 дБ 4:28 13/21-(Concerto in E minor, RV445) - I. AllegroDR10 -7.13 дБ -20.63 дБ 2:42 14/21-(Concerto in E minor, RV445) - II. LarghettoDR13 -4.79 дБ -20.38 дБ 3:36 15/21-(Concerto in E minor, RV445) - III. [Allegro]DR12 -5.44 дБ -21.94 дБ 3:44 16/21-(Concerto in D major, RV92, for recorder, violin & b.c.) - I. AllegroDR11 -4.53 дБ -22.59 дБ 3:47 17/21-(Concerto in D major, RV92, for recorder, violin & b.c.) - II. [Adagio]DR12 -6.80 дБ -22.41 дБ 3:25 18/21-(Concerto in D major, RV92, for recorder, violin & b.c.) - III. [Allegro]DR13 -4.49 дБ -21.69 дБ 4:50 19/21-(Concerto in C minor, RV441) - I. Allegro non moltoDR14 -0.50 дБ -22.14 дБ 2:28 20/21-(Concerto in C minor, RV441) - II. LargoDR13 -4.96 дБ -22.43 дБ 3:45 21/21-(Concerto in C minor, RV441) - III. [Allegro]DR10 -11.10 дБ -26.05 дБ 3:48 8/21-(Concerto in F major, RV442) - II. Largo cantabileDR14 -4.52 дБ -23.90 дБ 1:51 9/21-(Concerto in F major, RV442) - III. AllegroDR11 -4.14 дБ -21.01 дБ 4:33 10/21-(Concerto in C major, RV444) - I. Allegro non moltoDR10 -8.31 дБ -23.39 дБ 2:10 11/21-(Concerto in C major, RV444) - II. Largo--------------------------------------------------------------------------------
Количество треков: 21Реальные значения DR: DR12
Частота: 96000 ГцКаналов: 2Разрядность: 24Битрейт: 2557 кбит/сКодек: FLAC================================================================================
[teatrix.ru].t12654.torrent 
Торрент: Зарегистрирован [ 2016-01-08 02:55 ] · C4D2480F764C44CD08FE5B7F287B5ECFF5520D24

Скачать .torrent

Скачать

16 KB

Статус: проверено
Скачан: 0 раз
Размер: 1.3 GB
terms.php



Быстрый ответ

Имя:

      
Для отправки сообщений необходимо включить JavaScript
Показать сообщения:    

Текущее время: 07-Дек 19:28

Часовой пояс: UTC + 3


Вы можете начинать темы
Вы можете отвечать на сообщения
Вы не можете редактировать свои сообщения
Вы не можете удалять свои сообщения
Вы не можете голосовать в опросах
Вы не можете прикреплять файлы к сообщениям
Вы можете скачивать файлы