(Classical/Choral) Martin Lutz: There is a spell upon your lips (The Copenhagen Chamber Choir CAMERATA) - 2015, FLAC (image+.cue) lossless


Статистика раздачи [Обновить пиров]
Размер:  256 MB   |    Зарегистрирован:  1 год   |    Скачан:  0 раз

Полного источника не было: Никогда

 
   
 
 
 

[Цитировать]

The Copenhagen Chamber Choir CAMERATA — Martin Lutz: There is a spell upon your lips-Classical/Choral • Dacapo • № 8.224724 • 2015 • lossless • FLAC • image+.cue • 01:22:51 • sanet.me • Digital booklet-01-17. Stabat Mater (2007) - for soprano & tenor solo, mixed choir, vibraphone, oboe and cello
18. Two Marian Motets (1998) - for mixed choir: No. 1. Salve Regina
19. Two Marian Motets (1998) - for mixed choir: No. 2. Ave Maria
20. Hoc est corpus, hokus pokus (2013) - for soprano & tenor solo, mixed choir, oboe and bassoon
21. There is a spell upon your lips (2000) - for mixed choir with soprano solo and oboe
22. Two Love Songs (1999) - for mixed choir: No. 1. Those Lips that Love's own Hand did Make
23. Two Love Songs (1999) - for mixed choir: No. 2. How oft when Thou, Music, my Music, play'st
-The Copenhagen Chamber Choir || Martin Nagashima Toft - conductor || Bo Kristian Jensen - tenor || Ditte Højgaard Andersen - soprano
Mathias Reumert - marimba || Adam Stadnicki - cello || Mette Termansen - oboe || Sabine Weinschenk - bassoon
Recorded: in Esajas Kirke 5 February and 6, 7 and 21 April 2013-Trailer-

cue

REM GENRE Classical
REM DATE 2015
REM DISCID 640F8617
REM COMMENT ExactAudioCopy v1.0b4
PERFORMER "The Copenhagen Chamber Choir"
TITLE "There Is a Spell upon Your Lips"
FILE "Martin Lutz - There Is a Spell upon Your Lips.flac" WAVE
TRACK 01 AUDIO
TITLE "Stabat Mater dolorosa - Cuius animam gementem"
FLAGS DCP
INDEX 01 00:00:00
TRACK 02 AUDIO
TITLE "Stabat Mater: O quam tristis et afflicta"
FLAGS DCP
INDEX 01 02:49:04
TRACK 03 AUDIO
TITLE "Stabat Mater: Quae maeraebat et dolebat"
FLAGS DCP
INDEX 01 04:47:53
TRACK 04 AUDIO
TITLE "Stabat Mater: Quis est homo qui non fleret - Quis non posset contristari"
FLAGS DCP
INDEX 01 07:14:21
TRACK 05 AUDIO
TITLE "Stabat Mater: Pro peccatis suae gentis"
FLAGS DCP
INDEX 01 09:04:14
TRACK 06 AUDIO
TITLE "Stabat Mater: Vidit suum dulcem natum"
FLAGS DCP
INDEX 01 11:23:29
TRACK 07 AUDIO
TITLE "Stabat Mater: Eja, mater, fons amoris"
FLAGS DCP
INDEX 01 14:06:66
TRACK 08 AUDIO
TITLE "Stabat Mater: Fac ut ardeat cor meum"
FLAGS DCP
INDEX 01 16:23:20
TRACK 09 AUDIO
TITLE "Stabat Mater: Sancta Mater, istud agas"
FLAGS DCP
INDEX 01 19:17:42
TRACK 10 AUDIO
TITLE "Stabat Mater: Tui nati vulnerati - Fac me vere tecum flere"
FLAGS DCP
INDEX 01 22:17:11
TRACK 11 AUDIO
TITLE "Stabat Mater: Juxta crucem tecum stare"
FLAGS DCP
INDEX 01 24:10:70
TRACK 12 AUDIO
TITLE "Stabat Mater: Virgo virginum praeclara"
FLAGS DCP
INDEX 01 27:15:03
TRACK 13 AUDIO
TITLE "Stabat Mater: Fac ut portem Christi mortem"
FLAGS DCP
INDEX 01 29:04:69
TRACK 14 AUDIO
TITLE "Stabat Mater: Fac me plagis vulnerari"
FLAGS DCP
INDEX 01 31:11:30
TRACK 15 AUDIO
TITLE "Stabat Mater: Inflammatus"
FLAGS DCP
INDEX 01 33:19:07
TRACK 16 AUDIO
TITLE "Stabat Mater: Fac me cruce"
FLAGS DCP
INDEX 01 36:30:43
TRACK 17 AUDIO
TITLE "Stabat Mater: Quando corpus morietur"
FLAGS DCP
INDEX 01 38:32:25
TRACK 18 AUDIO
TITLE "2 Marian Lovers: No. 1. Salve Regina"
FLAGS DCP
INDEX 00 41:48:55
INDEX 01 41:57:49
TRACK 19 AUDIO
TITLE "2 Marian Lovers: No. 2. Ave Maria"
FLAGS DCP
INDEX 01 44:27:67
TRACK 20 AUDIO
TITLE "Hoc est corpus, hokus pokus"
FLAGS DCP
INDEX 00 46:39:45
INDEX 01 46:47:40
TRACK 21 AUDIO
TITLE "There Is A Spell Upon Your Lips"
FLAGS DCP
INDEX 00 52:02:32
INDEX 01 52:10:26
TRACK 22 AUDIO
TITLE "2 Love Songs: No. 1. Those Lips that Love's own Hand did Make"
FLAGS DCP
INDEX 00 61:49:06
INDEX 01 61:56:42
TRACK 23 AUDIO
TITLE "2 Love Songs: No. 2. How oft when Thou, Music, my Music, play'st"
FLAGS DCP
INDEX 01 64:07:50

EAC

Exact Audio Copy V1.0 beta 4 from 7. December 2014
EAC extraction logfile from 25. December 2015, 14:27
Martin Lutz / There Is a Spell upon Your Lips
Used drive : hp DVDRAM GT80N Adapter: 1 ID: 0
Read mode : Secure
Utilize accurate stream : Yes
Defeat audio cache : Yes
Make use of C2 pointers : No
Read offset correction : 102
Overread into Lead-In and Lead-Out : No
Fill up missing offset samples with silence : Yes
Delete leading and trailing silent blocks : No
Null samples used in CRC calculations : Yes
Used interface : Native Win32 interface for Win NT & 2000
Used output format : User Defined Encoder
Selected bitrate : 128 kBit/s
Quality : High
Add ID3 tag : No
Command line compressor : C:\Program Files (x86)\Exact Audio Copy\Flac\flac.exe
Additional command line options : -V -8 -T "Date=%year%" -T "Genre=%genre%" %source%
TOC of the extracted CD
Track | Start | Length | Start sector | End sector
---------------------------------------------------------
1 | 0:00.00 | 2:49.04 | 0 | 12678
2 | 2:49.04 | 1:58.49 | 12679 | 21577
3 | 4:47.53 | 2:26.43 | 21578 | 32570
4 | 7:14.21 | 1:49.68 | 32571 | 40813
5 | 9:04.14 | 2:19.15 | 40814 | 51253
6 | 11:23.29 | 2:43.37 | 51254 | 63515
7 | 14:06.66 | 2:16.29 | 63516 | 73744
8 | 16:23.20 | 2:54.22 | 73745 | 86816
9 | 19:17.42 | 2:59.44 | 86817 | 100285
10 | 22:17.11 | 1:53.59 | 100286 | 108819
11 | 24:10.70 | 3:04.08 | 108820 | 122627
12 | 27:15.03 | 1:49.66 | 122628 | 130868
13 | 29:04.69 | 2:06.36 | 130869 | 140354
14 | 31:11.30 | 2:07.52 | 140355 | 149931
15 | 33:19.07 | 3:11.36 | 149932 | 164292
16 | 36:30.43 | 2:01.57 | 164293 | 173424
17 | 38:32.25 | 3:25.24 | 173425 | 188823
18 | 41:57.49 | 2:30.18 | 188824 | 200091
19 | 44:27.67 | 2:19.48 | 200092 | 210564
20 | 46:47.40 | 5:22.61 | 210565 | 234775
21 | 52:10.26 | 9:46.16 | 234776 | 278741
22 | 61:56.42 | 2:11.08 | 278742 | 288574
23 | 64:07.50 | 2:06.55 | 288575 | 298079
Range status and errors
Selected range
Filename C:\Files for Upload\Martin Lutz - There Is a Spell upon Your Lips (2015)\Martin Lutz - There Is a Spell upon Your Lips.wav
Peak level 93.3 %
Extraction speed 3.7 X
Range quality 99.9 %
Test CRC 8F4790ED
Copy CRC 8F4790ED
Copy OK
No errors occurred
AccurateRip summary
Track 1 not present in database
Track 2 not present in database
Track 3 not present in database
Track 4 not present in database
Track 5 not present in database
Track 6 not present in database
Track 7 not present in database
Track 8 not present in database
Track 9 not present in database
Track 10 not present in database
Track 11 not present in database
Track 12 not present in database
Track 13 not present in database
Track 14 not present in database
Track 15 not present in database
Track 16 not present in database
Track 17 not present in database
Track 18 not present in database
Track 19 not present in database
Track 20 not present in database
Track 21 not present in database
Track 22 not present in database
Track 23 not present in database
None of the tracks are present in the AccurateRip database
End of status report
==== Log checksum 25F27CF6374EE6837215102EC289517B8602BA9AF706471919D77F2643B6ECFC ====
[teatrix.ru].t12657.torrent 
Торрент: Зарегистрирован [ 2016-01-08 07:10 ] · E4AD14EEB452FF7188255E94A83283E627D3D90A

Скачать .torrent

Скачать

21 KB

Статус: проверено
Скачан: 0 раз
Размер: 256 MB
terms.php



Быстрый ответ

Имя:

      
Для отправки сообщений необходимо включить JavaScript
Показать сообщения:    

Текущее время: 18-Янв 00:24

Часовой пояс: UTC + 3


Вы можете начинать темы
Вы можете отвечать на сообщения
Вы не можете редактировать свои сообщения
Вы не можете удалять свои сообщения
Вы не можете голосовать в опросах
Вы не можете прикреплять файлы к сообщениям
Вы можете скачивать файлы