(Classical) Georg Philipp Telemann - Cantatas and chamber music with recorder - Gemma Bertagnolli, Stefano Bagliano, Collegium Pro Musica - 2013, FLAC (image+.cue) lossless


 

[Цитировать]

Georg Philipp Telemann - Cantatas and chamber music with recorder - Gemma Bertagnolli, Stefano Bagliano, Collegium Pro Musica
Жанр: Classical
Год издания диска: 2013
Издатель (лейбл): Brilliant Classics
Номер по каталогу: 94334
Дата записи: 2012
Аудиокодек: FLAC
Тип рипа: image+.cue
Битрейт аудио: lossless
Продолжительность: 56:37
Источник: собственный рип
Наличие сканов в содержимом раздачи: да
Треклист:
Georg Philipp Telemann (1681-1767)
[1]-[3] Deine Toten werden leben, TWV 1:213
Cantata in E minor for soprano, recorder and basso continuo
[4]-[6] Hemmet den Eifer, verbannet die Rache, TWV 1:730
Cantata in C major for soprano, recorder and basso continuo
[7]-[13] Partita No.5 in E minor for recorder and basso continuo, TWV 41:e1
[14]-[16] Du bist verflucht, o Schreckensstimme, TWV 1:385
Cantata in A minor for soprano, recorder and basso continuo
[17]-[20] Trio Sonata in G minor for two recorders and basso continuo, TWV 42:g8
[21]-[23] Also hat Gott die Welt geliebt, TWV 1:168
Cantata in F major for soprano, two oboes (recorders) and basso continuo
Исполнители:
Gemma Bertagnolli soprano
Stefano Bagliano recorder and concert master
Collegium Pro Musica

Лог создания рипа

Exact Audio Copy V1.0 beta 3 from 29. August 2011
EAC extraction logfile from 26. April 2015, 9:48
Gemma Bertagnolli, Stefano Bagliano, Collegium Pro Musica / Telemann - Cantatas; Chamber music with recorder
Used drive : HL-DT-STDVDRAM GU70N Adapter: 0 ID: 0
Read mode : SecureUtilize accurate stream : YesDefeat audio cache : YesMake use of C2 pointers : No
Read offset correction : 48Overread into Lead-In and Lead-Out : NoFill up missing offset samples with silence : YesDelete leading and trailing silent blocks : NoNull samples used in CRC calculations : YesUsed interface : Native Win32 interface for Win NT & 2000
Used output format : User Defined EncoderSelected bitrate : 128 kBit/sQuality : HighAdd ID3 tag : NoCommand line compressor : C:\Program Files (x86)\Exact Audio Copy\Flac\flac.exeAdditional command line options : -V -8 -T "Date=%year%" -T "Genre=%genre%" %source%
TOC of the extracted CD
Track | Start | Length | Start sector | End sector --------------------------------------------------------- 1 | 0:00.00 | 3:41.56 | 0 | 16630 2 | 3:41.56 | 2:22.19 | 16631 | 27299 3 | 6:04.00 | 5:08.06 | 27300 | 50405 4 | 11:12.06 | 3:51.09 | 50406 | 67739 5 | 15:03.15 | 1:12.17 | 67740 | 73156 6 | 16:15.32 | 3:52.06 | 73157 | 90562 7 | 20:07.38 | 1:25.18 | 90563 | 96955 8 | 21:32.56 | 1:32.20 | 96956 | 103875 9 | 23:05.01 | 1:03.37 | 103876 | 108637 10 | 24:08.38 | 0:55.61 | 108638 | 112823 11 | 25:04.24 | 2:47.13 | 112824 | 125361 12 | 27:51.37 | 1:16.46 | 125362 | 131107 13 | 29:08.08 | 0:46.24 | 131108 | 134581 14 | 29:54.32 | 2:56.49 | 134582 | 147830 15 | 32:51.06 | 3:32.49 | 147831 | 163779 16 | 36:23.55 | 2:57.18 | 163780 | 177072 17 | 39:20.73 | 1:48.66 | 177073 | 185238 18 | 41:09.64 | 1:36.06 | 185239 | 192444 19 | 42:45.70 | 1:55.05 | 192445 | 201074 20 | 44:41.00 | 1:35.54 | 201075 | 208253 21 | 46:16.54 | 4:42.04 | 208254 | 229407 22 | 50:58.58 | 0:34.62 | 229408 | 232019 23 | 51:33.45 | 5:03.65 | 232020 | 254809
Range status and errors
Selected range
Filename C:\temp\Telemann - Cantatas; Chamber music with recorder\Telemann - Cantatas; Chamber music with recorder.wav
Peak level 100.0 % Extraction speed 2.0 X Range quality 100.0 % Test CRC 66AE0492 Copy CRC 66AE0492 Copy OK
No errors occurred
AccurateRip summary
Track 1 not present in databaseTrack 2 not present in databaseTrack 3 not present in databaseTrack 4 not present in databaseTrack 5 not present in databaseTrack 6 not present in databaseTrack 7 not present in databaseTrack 8 not present in databaseTrack 9 not present in databaseTrack 10 not present in databaseTrack 11 not present in databaseTrack 12 not present in databaseTrack 13 not present in databaseTrack 14 not present in databaseTrack 15 not present in databaseTrack 16 not present in databaseTrack 17 not present in databaseTrack 18 not present in databaseTrack 19 not present in databaseTrack 20 not present in databaseTrack 21 not present in databaseTrack 22 not present in databaseTrack 23 not present in database
None of the tracks are present in the AccurateRip database
End of status report
==== Log checksum BBCC137929CACFCA331786880B6FB825836E137BB0FD439F22376DA59BF3868F ====



Показать сообщения:    

Текущее время: 11-Дек 15:00

Часовой пояс: UTC + 3


Вы не можете начинать темы
Вы не можете отвечать на сообщения
Вы не можете редактировать свои сообщения
Вы не можете удалять свои сообщения
Вы не можете голосовать в опросах
Вы не можете прикреплять файлы к сообщениям
Вы не можете скачивать файлы