Великий мистификатор (А. Марутян) [1992, Документальный, DVB]


Статистика раздачи [Обновить пиров]
Размер:  511 MB   |    Зарегистрирован:  10 месяцев 25 дней   |    Скачан:  0 раз

Полного источника не было: Никогда

Личеров:  4  [  0 KB/s  ]   Подробная статистика пиров
 
   
 
 
 

[Цитировать]

Великий мистификатор
Дата/Год выпуска: 1992
Страна: Россия
Производство: ЦНФ
Жанр: Документальный
Продолжительность: 26:59
Оригинальная аудиодорожка: русский
Режиссер: А. Марутян
Описание: Фильм посвящен творчеству режиссера Сергея Параджанова. В картине использованы фрагменты из фильмов режиссера.
качество: DVB
формат: MPG
Видео: MPEG2, 720x576, 4:3, 25.00fps, 2403 Kbps
Аудио: MP2 2.0, 48 kHz, 192 kbps

MediaInfo

GeneralComplete name : Великий мистификатор (1992).mpgFormat : MPEG-PSFile size : 511 MiBDuration : 26mn 59sOverall bit rate mode : VariableOverall bit rate : 2 647 Kbps
VideoID : 224 (0xE0)Format : MPEG VideoFormat version : Version 2Format profile : Main@MainFormat settings, BVOP : YesFormat settings, Matrix : CustomFormat settings, GOP : VariableFormat settings, picture structure : FrameDuration : 26mn 59sBit rate mode : VariableBit rate : 2 403 KbpsMaximum bit rate : 15.0 MbpsWidth : 720 pixelsHeight : 576 pixelsDisplay aspect ratio : 4:3Frame rate : 25.000 fpsStandard : PALColor space : YUVChroma subsampling : 4:2:0Bit depth : 8 bitsScan type : InterlacedScan order : Top Field FirstCompression mode : LossyBits/(Pixel*Frame) : 0.232Time code of first frame : 00:00:00:00Time code source : Group of pictures headerGOP, Open/Closed : OpenStream size : 464 MiB (91%)
AudioID : 192 (0xC0)Format : MPEG AudioFormat version : Version 1Format profile : Layer 2Duration : 26mn 59sBit rate mode : ConstantBit rate : 192 KbpsChannel(s) : 2 channelsSampling rate : 48.0 KHzCompression mode : LossyDelay relative to video : 8msStream size : 37.1 MiB (7%)

Скриншоты

[teatrix.ru].t12672.torrent 
Торрент: Зарегистрирован [ 2016-01-08 15:40 ] · 58E4E0BA461A0968FE8327C30FCAB10FE5431DD6

Скачать .torrent

Скачать

20 KB

Статус: проверено
Скачан: 0 раз
Размер: 511 MB
terms.php



Показать сообщения:    

Текущее время: 03-Дек 01:19

Часовой пояс: UTC + 3


Вы не можете начинать темы
Вы не можете отвечать на сообщения
Вы не можете редактировать свои сообщения
Вы не можете удалять свои сообщения
Вы не можете голосовать в опросах
Вы не можете прикреплять файлы к сообщениям
Вы можете скачивать файлы