(Classical, Christmas) Mannerchor der Chorkunstakademie Moskau / Мужской хор Академии хорового искусства п/у Виктора Попова - Russische Weihnacht / Noel a Russie - 1996, FLAC (tracks+.cue), lossless


Статистика раздачи [Обновить пиров]
Размер:  225 MB   |    Зарегистрирован:  11 месяцев 1 день   |    Скачан:  0 раз

Полного источника не было: Никогда

 
   
 
 
 

[Цитировать]

Mannerchor der Chorkunstakademie Moskau - Russische Weihnacht
Жанр: Classical, Christmas
Страна-производитель диска: Австрия
Год издания диска: 1996
Издатель (лейбл): Koch Schwann
Номер по каталогу: 3-6475-2
Аудиокодек: FLAC
Тип рипа: tracks+.cue
Битрейт аудио: lossless
Продолжительность: 50:52
Источник (релизер): Rfi (what)
Наличие сканов в содержимом раздачи: да
Треклист:
01. Geburt Christi (Trad.) (4:12)
02. Die Jungfrau gebar den Sohn (Бортнянский) (2:10)
03. Christus wird geboren (Аллеманов) (2:27)
04. Ehre sei Gott in der Hohe (Бортнянский) (5:41)
05. Heute wird Christus geboren (Дегтярев) (5:40)
06. Die Engel im Himmel (Trad.) (2:19)
07. Wunsch ich Dir Guten Abend (Trad.) (1:59)
08. Es ging, ging auf der Mond (Trad.) (3:33)
09. Kurrendelied (Trad.) (1:21)
10. Im Meer, im Meer schwimmt das Schiffchen (Trad.) (2:40)
11. Wie im Fluss, im Jordan (Trad.) (2:36)
12. Tausen' (Kurrendelied) (Trad.) (1:10)
13. O Heiligabend (Trad.) (2:59)
14. Fruh, sehr fruh krahten die Hahne (Trad.) (1:20)
15. Guten Abend (Trad.) (2:29)
16. Hier wohnt ein reicher Mann (Kurrendelied) (Trad.) (1:38)
17. Was fur ein Wunder (Trad.) (5:11)
18. Kurrende, Kurrende, Kurrendelied (Trad.) (1:27)
Исполнители:
Мужской хор Академии хорового искусства п/у Виктора Попова.

Лог создания рипа

Exact Audio Copy V1.0 beta 3 from 29. August 2011
EAC extraction logfile from 4. February 2012, 13:05
Männerchor der Chorkunstakademie Moskau / Russische Weihnacht
Used drive : PIONEER DVD-RW DVR-115D Adapter: 1 ID: 0
Read mode : SecureUtilize accurate stream : YesDefeat audio cache : YesMake use of C2 pointers : No
Read offset correction : 48Overread into Lead-In and Lead-Out : NoFill up missing offset samples with silence : YesDelete leading and trailing silent blocks : NoNull samples used in CRC calculations : YesUsed interface : Native Win32 interface for Win NT & 2000Gap handling : Appended to previous track
Used output format : User Defined EncoderSelected bitrate : 1024 kBit/sQuality : HighAdd ID3 tag : NoCommand line compressor : C:\Program Files\Exact Audio Copy\Flac\flac.exeAdditional command line options : -8 -V -T "ARTIST=%artist%" -T "TITLE=%title%" -T "ALBUM=%albumtitle%" -T "DATE=%year%" -T "TRACKNUMBER=%tracknr%" -T "GENRE=%genre%" -T "PERFORMER=%albuminterpret%" -T "COMPOSER=%composer%" %haslyrics%--tag-from-file=LYRICS="%lyricsfile%"%haslyrics% -T "ALBUMARTIST=%albumartist%" -T "DISCNUMBER=%cdnumber%" -T "TOTALDISCS=%totalcds%" -T "TOTALTRACKS=%numtracks%" -T "COMMENT=%comment%" %source% -o %dest%
TOC of the extracted CD
Track | Start | Length | Start sector | End sector --------------------------------------------------------- 1 | 0:00.00 | 4:12.20 | 0 | 18919 2 | 4:12.20 | 2:09.55 | 18920 | 28649 3 | 6:22.00 | 2:27.25 | 28650 | 39699 4 | 8:49.25 | 5:41.12 | 39700 | 65286 5 | 14:30.37 | 5:40.20 | 65287 | 90806 6 | 20:10.57 | 2:18.63 | 90807 | 101219 7 | 22:29.45 | 1:59.02 | 101220 | 110146 8 | 24:28.47 | 3:33.18 | 110147 | 126139 9 | 28:01.65 | 1:20.57 | 126140 | 132196 10 | 29:22.47 | 2:39.50 | 132197 | 144171 11 | 32:02.22 | 2:35.58 | 144172 | 155854 12 | 34:38.05 | 1:09.40 | 155855 | 161069 13 | 35:47.45 | 2:58.70 | 161070 | 174489 14 | 38:46.40 | 1:20.35 | 174490 | 180524 15 | 40:07.00 | 2:29.32 | 180525 | 191731 16 | 42:36.32 | 1:38.18 | 191732 | 199099 17 | 44:14.50 | 5:11.12 | 199100 | 222436 18 | 49:25.62 | 1:27.05 | 222437 | 228966
Track 1
Filename K:\Audio Rips K\01 - Geburt Christi.wav
Pre-gap length 0:00:02.00
Peak level 60.0 % Extraction speed 4.3 X Track quality 100.0 % Test CRC AB24DD4B Copy CRC AB24DD4B Track not present in AccurateRip database Copy OK
Track 2
Filename K:\Audio Rips K\02 - Die Jungfrau gebar den Sohn.wav
Peak level 85.6 % Extraction speed 4.2 X Track quality 100.0 % Test CRC CB7AF427 Copy CRC CB7AF427 Track not present in AccurateRip database Copy OK
Track 3
Filename K:\Audio Rips K\03 - Christus wird geboren.wav
Peak level 69.5 % Extraction speed 4.5 X Track quality 100.0 % Test CRC 4B953C3A Copy CRC 4B953C3A Track not present in AccurateRip database Copy OK
Track 4
Filename K:\Audio Rips K\04 - Ehre sei Gott in der Höhe.wav
Peak level 94.6 % Extraction speed 3.2 X Track quality 99.8 % Test CRC 2DC44D02 Copy CRC 2DC44D02 Track not present in AccurateRip database Copy OK
Track 5
Filename K:\Audio Rips K\05 - Heute wird Christus geboren.wav
Peak level 92.2 % Extraction speed 3.5 X Track quality 99.8 % Test CRC 884F4D9D Copy CRC 884F4D9D Track not present in AccurateRip database Copy OK
Track 6
Filename K:\Audio Rips K\06 - Die Engel im Himmel.wav
Peak level 28.5 % Extraction speed 3.0 X Track quality 99.7 % Test CRC 84818612 Copy CRC 84818612 Track not present in AccurateRip database Copy OK
Track 7
Filename K:\Audio Rips K\07 - Guten Abend Dir.wav
Peak level 38.6 % Extraction speed 2.8 X Track quality 99.6 % Test CRC CCFB99A3 Copy CRC CCFB99A3 Track not present in AccurateRip database Copy OK
Track 8
Filename K:\Audio Rips K\08 - Es ging auf der Mond.wav
Peak level 69.7 % Extraction speed 5.5 X Track quality 99.9 % Test CRC 5D919441 Copy CRC 5D919441 Track not present in AccurateRip database Copy OK
Track 9
Filename K:\Audio Rips K\09 - Kurrendelied.wav
Peak level 72.4 % Extraction speed 5.1 X Track quality 100.0 % Test CRC 8CB95EA4 Copy CRC 8CB95EA4 Track not present in AccurateRip database Copy OK
Track 10
Filename K:\Audio Rips K\10 - Im Meer schwimmt das Schiffchen.wav
Peak level 79.7 % Extraction speed 1.8 X Track quality 99.3 % Test CRC 596E433B Copy CRC 596E433B Track not present in AccurateRip database Copy OK
Track 11
Filename K:\Audio Rips K\11 - Wie im Fluß, im Jordan.wav
Peak level 87.6 % Extraction speed 5.3 X Track quality 99.9 % Test CRC C5ED512D Copy CRC C5ED512D Track not present in AccurateRip database Copy OK
Track 12
Filename K:\Audio Rips K\12 - Tausen' (Kurrendelied).wav
Peak level 71.2 % Extraction speed 5.1 X Track quality 100.0 % Test CRC 0ABA5342 Copy CRC 0ABA5342 Track not present in AccurateRip database Copy OK
Track 13
Filename K:\Audio Rips K\13 - O Heiligabend.wav
Peak level 50.5 % Extraction speed 1.8 X Track quality 99.3 % Test CRC 6E5F0912 Copy CRC 6E5F0912 Track not present in AccurateRip database Copy OK
Track 14
Filename K:\Audio Rips K\14 - Früh, sehr früh krähten die Hähne.wav
Peak level 54.9 % Extraction speed 5.6 X Track quality 100.0 % Test CRC 99160C8D Copy CRC 99160C8D Track not present in AccurateRip database Copy OK
Track 15
Filename K:\Audio Rips K\15 - Guten Abend.wav
Peak level 29.3 % Extraction speed 6.7 X Track quality 100.0 % Test CRC 39CBCF5C Copy CRC 39CBCF5C Track not present in AccurateRip database Copy OK
Track 16
Filename K:\Audio Rips K\16 - Hier wohnt ein reicher Mann (Kurrendelied).wav
Peak level 58.7 % Extraction speed 4.9 X Track quality 99.8 % Test CRC B1A775B2 Copy CRC B1A775B2 Track not present in AccurateRip database Copy OK
Track 17
Filename K:\Audio Rips K\17 - Was für ein Wunder.wav
Peak level 60.7 % Extraction speed 7.8 X Track quality 100.0 % Test CRC 3119AF69 Copy CRC 3119AF69 Track not present in AccurateRip database Copy OK
Track 18
Filename K:\Audio Rips K\18 - Kurrendelied.wav
Peak level 59.2 % Extraction speed 6.1 X Track quality 100.0 % Test CRC 21F618E9 Copy CRC 21F618E9 Track not present in AccurateRip database Copy OK
None of the tracks are present in the AccurateRip database
No errors occurred
End of status report
---- CUETools DB Plugin V2.1.3
[CTDB TOCID: 89GvLMJLbCf3hTgadiG6Gt0Wndg-] disk not present in database, Submit result: 89GvLMJLbCf3hTgadiG6Gt0Wndg- has been uploaded
==== Log checksum 51D460CA1013C197A3735BDF1A91A52A02AFDA220FBDCFDB7E28B1C14FCE2AA4 ====

Содержание индексной карты (.CUE)

REM GENRE ChristmasREM DATE 1996REM DISCID FD0BEC12REM COMMENT "ExactAudioCopy v1.0b3"CATALOG 0099923647522PERFORMER "Mannerchor der Chorkunstakademie Moskau"TITLE "Russische Weihnacht"FILE "01 - Geburt Christi.wav" WAVE TRACK 01 AUDIO TITLE "Geburt Christi" PERFORMER "Mannerchor der Chorkunstakademie Moskau" ISRC DEC989400577 INDEX 01 00:00:00FILE "02 - Die Jungfrau gebar den Sohn.wav" WAVE TRACK 02 AUDIO TITLE "Die Jungfrau gebar den Sohn" PERFORMER "Mannerchor der Chorkunstakademie Moskau" ISRC DEC989400578 INDEX 01 00:00:00FILE "03 - Christus wird geboren.wav" WAVE TRACK 03 AUDIO TITLE "Christus wird geboren" PERFORMER "Mannerchor der Chorkunstakademie Moskau" ISRC DEC989400579 INDEX 01 00:00:00FILE "04 - Ehre sei Gott in der Hohe.wav" WAVE TRACK 04 AUDIO TITLE "Ehre sei Gott in der Hohe" PERFORMER "Mannerchor der Chorkunstakademie Moskau" ISRC DEC989400580 INDEX 01 00:00:00FILE "05 - Heute wird Christus geboren.wav" WAVE TRACK 05 AUDIO TITLE "Heute wird Christus geboren" PERFORMER "Mannerchor der Chorkunstakademie Moskau" ISRC DEC989400581 INDEX 01 00:00:00FILE "06 - Die Engel im Himmel.wav" WAVE TRACK 06 AUDIO TITLE "Die Engel im Himmel" PERFORMER "Mannerchor der Chorkunstakademie Moskau" ISRC DEC989400582 INDEX 01 00:00:00FILE "07 - Wunsch ich Dir Guten Abend.wav" WAVE TRACK 07 AUDIO TITLE "Wunsch ich Dir Guten Abend" PERFORMER "Mannerchor der Chorkunstakademie Moskau" ISRC DEC989400583 INDEX 01 00:00:00FILE "08 - Es ging, ging auf der Mond.wav" WAVE TRACK 08 AUDIO TITLE "Es ging, ging auf der Mond" PERFORMER "Mannerchor der Chorkunstakademie Moskau" ISRC DEC989400584 INDEX 01 00:00:00FILE "09 - Kurrendelied.wav" WAVE TRACK 09 AUDIO TITLE "Kurrendelied" PERFORMER "Mannerchor der Chorkunstakademie Moskau" ISRC DEC989400585 INDEX 01 00:00:00FILE "10 - Im Meer, im Meer schwimmt das Schiffchen.wav" WAVE TRACK 10 AUDIO TITLE "Im Meer, im Meer schwimmt das Schiffchen" PERFORMER "Mannerchor der Chorkunstakademie Moskau" ISRC DEC989400586 INDEX 01 00:00:00FILE "11 - Wie im Fluss, im Jordan.wav" WAVE TRACK 11 AUDIO TITLE "Wie im Fluss, im Jordan" PERFORMER "Mannerchor der Chorkunstakademie Moskau" ISRC DEC989400587 INDEX 01 00:00:00FILE "12 - Tausen' (Kurrendelied).wav" WAVE TRACK 12 AUDIO TITLE "Tausen' (Kurrendelied)" PERFORMER "Mannerchor der Chorkunstakademie Moskau" ISRC DEC989400588 INDEX 01 00:00:00FILE "13 - O Heiligabend.wav" WAVE TRACK 13 AUDIO TITLE "O Heiligabend" PERFORMER "Mannerchor der Chorkunstakademie Moskau" ISRC DEC989400589 INDEX 01 00:00:00FILE "14 - Fruh, sehr fruh krahten die Hahne.wav" WAVE TRACK 14 AUDIO TITLE "Fruh, sehr fruh krahten die Hahne" PERFORMER "Mannerchor der Chorkunstakademie Moskau" ISRC DEC989400590 INDEX 01 00:00:00FILE "15 - Guten Abend.wav" WAVE TRACK 15 AUDIO TITLE "Guten Abend" PERFORMER "Mannerchor der Chorkunstakademie Moskau" ISRC DEC989400591 INDEX 01 00:00:00FILE "16 - Hier wohnt ein reicher Mann (Kurrendelied).wav" WAVE TRACK 16 AUDIO TITLE "Hier wohnt ein reicher Mann (Kurrendelied)" PERFORMER "Mannerchor der Chorkunstakademie Moskau" ISRC DEC989400592 INDEX 01 00:00:00FILE "17 - Was fur ein Wunder.wav" WAVE TRACK 17 AUDIO TITLE "Was fur ein Wunder" PERFORMER "Mannerchor der Chorkunstakademie Moskau" ISRC DEC989400593 INDEX 01 00:00:00FILE "18 - Kurrende, Kurrende, Kurrendelied.wav" WAVE TRACK 18 AUDIO TITLE "Kurrende, Kurrende, Kurrendelied" PERFORMER "Mannerchor der Chorkunstakademie Moskau" INDEX 01 00:00:00

Отчет CUETools

[CUETools log; Date: 08.01.2016 14:59:55; Version: 2.1.5][CTDB TOCID: 89GvLMJLbCf3hTgadiG6Gt0Wndg-] found.Track | CTDB Status 1 | (1/1) Accurately ripped 2 | (1/1) Accurately ripped 3 | (1/1) Accurately ripped 4 | (1/1) Accurately ripped 5 | (1/1) Accurately ripped 6 | (1/1) Accurately ripped 7 | (1/1) Accurately ripped 8 | (1/1) Accurately ripped 9 | (1/1) Accurately ripped 10 | (1/1) Accurately ripped 11 | (1/1) Accurately ripped 12 | (1/1) Accurately ripped 13 | (1/1) Accurately ripped 14 | (1/1) Accurately ripped 15 | (1/1) Accurately ripped 16 | (1/1) Accurately ripped 17 | (1/1) Accurately ripped 18 | (1/1) Accurately ripped[AccurateRip ID: 00242f58-01d49226-fd0bec12] found.Track [ CRC | V2 ] Status 01 [add12636|d5966c90] (0+2/2) Accurately ripped 02 [9c6cedb8|426f0551] (0+2/2) Accurately ripped 03 [e685da48|32fea919] (0+2/2) Accurately ripped 04 [b8bdf92a|277c4613] (0+2/2) Accurately ripped 05 [75f9b10a|a194262b] (0+2/2) Accurately ripped 06 [df1c8f75|c33fbbfb] (0+2/2) Accurately ripped 07 [ef5a5f4e|d7150ead] (0+2/2) Accurately ripped 08 [63912187|f66af74e] (0+2/2) Accurately ripped 09 [0e7d44c1|573a6413] (0+2/2) Accurately ripped 10 [91e04daf|07e7e032] (0+2/2) Accurately ripped 11 [b354c5cc|eb102fbf] (0+2/2) Accurately ripped 12 [96eb3d6e|5bb24e48] (0+2/2) Accurately ripped 13 [d036df33|ff8fb704] (0+2/2) Accurately ripped 14 [dc220548|cb5d6761] (0+2/2) Accurately ripped 15 [25750f52|9746150b] (0+2/2) Accurately ripped 16 [e5e36a38|c62792cb] (0+2/2) Accurately ripped 17 [8241d08e|6a5bce03] (0+2/2) Accurately ripped 18 [cd1dc14a|47729160] (0+2/2) Accurately ripped
Track Peak [ CRC32 ] [W/O NULL] [ LOG ] -- 94,6 [06C829AF] [F1F22BED] 01 60,0 [AB24DD4B] [2236F1A2] CRC32 02 85,6 [CB7AF427] [71357B36] CRC32 03 69,5 [4B953C3A] [F837AF83] CRC32 04 94,6 [2DC44D02] [5B4017AB] CRC32 05 92,2 [884F4D9D] [FEF97ED4] CRC32 06 28,5 [84818612] [48CAF6F7] CRC32 07 38,6 [CCFB99A3] [9F88F9BB] CRC32 08 69,7 [5D919441] [D583B7FD] CRC32 09 72,4 [8CB95EA4] [53CF09FD] CRC32 10 79,7 [596E433B] [0BEA2AFF] CRC32 11 87,6 [C5ED512D] [DBF0E61F] CRC32 12 71,2 [0ABA5342] [365B23EB] CRC32 13 50,5 [6E5F0912] [C7C61287] CRC32 14 54,9 [99160C8D] [DE74CB8E] CRC32 15 29,3 [39CBCF5C] [27875729] CRC32 16 58,7 [B1A775B2] [10AF14F3] CRC32 17 60,7 [3119AF69] [22FC20B1] CRC32 18 59,2 [21F618E9] [AF2EE0D8] CRC32
[teatrix.ru].t12677.torrent 
Торрент: Зарегистрирован [ 2016-01-08 19:55 ] · 75D0066045FF40363AF7CF7865C2F3E36542EDEB

Скачать .torrent

Скачать

20 KB

Статус: проверено
Скачан: 0 раз
Размер: 225 MB
terms.php



Быстрый ответ

Имя:

      
Для отправки сообщений необходимо включить JavaScript
Показать сообщения:    

Текущее время: 10-Дек 02:15

Часовой пояс: UTC + 3


Вы можете начинать темы
Вы можете отвечать на сообщения
Вы не можете редактировать свои сообщения
Вы не можете удалять свои сообщения
Вы не можете голосовать в опросах
Вы не можете прикреплять файлы к сообщениям
Вы можете скачивать файлы