(Classical) Armando Jose Fernandes - Violin Concerto; Violin Sonata - Carlos Damas, Anna Tomasik, Mission Chamber Orchestra of San Jose, Emily Ray - 2014, FLAC (image+.cue) lossless


Статистика раздачи [Обновить пиров]
Размер:  262 MB   |    Зарегистрирован:  11 месяцев   |    Скачан:  0 раз

Полного источника не было: Никогда

 
   
 
 
 

[Цитировать]

Armando José Fernandes - Violin Concerto; Violin Sonata - Carlos Damas, Anna Tomasik, Mission Chamber Orchestra of San Jose, Emily Ray
Жанр: Classical
Год издания диска: 2014
Издатель (лейбл): Brilliant Classics
Номер по каталогу: 94746
Дата записи: 2012, 2013
Аудиокодек: FLAC
Тип рипа: image+.cue
Битрейт аудио: lossless
Продолжительность: 62:00
Источник: собственный рип
Наличие сканов в содержимом раздачи: да
Треклист:
Armando José Fernandes (1906-1983)
[1]-[4] Violin Concerto in E major (1948)
[5]-[8] Violin Sonata (1946)
Исполнители:
Carlos Damas violin
Anna Tomasik piano ([5]-[8])
Mission Chamber Orchestra of San Jose ([1]-[4])
Emily Ray conductor ([1]-[4])

Лог создания рипа

Exact Audio Copy V1.0 beta 3 from 29. August 2011
EAC extraction logfile from 26. April 2015, 14:44
Carlos Damas, Anna Tomasik, Mission Chamber Orchestra of San Jose, Emily Ray / Fernandes - Violin Concerto; Violin Sonata
Used drive : HL-DT-STDVDRAM GU70N Adapter: 0 ID: 0
Read mode : SecureUtilize accurate stream : YesDefeat audio cache : YesMake use of C2 pointers : No
Read offset correction : 48Overread into Lead-In and Lead-Out : NoFill up missing offset samples with silence : YesDelete leading and trailing silent blocks : NoNull samples used in CRC calculations : YesUsed interface : Native Win32 interface for Win NT & 2000
Used output format : User Defined EncoderSelected bitrate : 128 kBit/sQuality : HighAdd ID3 tag : NoCommand line compressor : C:\Program Files (x86)\Exact Audio Copy\Flac\flac.exeAdditional command line options : -V -8 -T "Date=%year%" -T "Genre=%genre%" %source%
TOC of the extracted CD
Track | Start | Length | Start sector | End sector --------------------------------------------------------- 1 | 0:00.00 | 13:36.00 | 0 | 61199 2 | 13:36.00 | 4:46.69 | 61200 | 82718 3 | 18:22.69 | 11:31.38 | 82719 | 134581 4 | 29:54.32 | 6:28.59 | 134582 | 163740 5 | 36:23.16 | 8:55.32 | 163741 | 203897 6 | 45:18.48 | 6:27.19 | 203898 | 232941 7 | 51:45.67 | 5:09.12 | 232942 | 256128 8 | 56:55.04 | 5:05.29 | 256129 | 279032
Range status and errors
Selected range
Filename C:\temp\Fernandes - Violin Concerto; Violin Sonata\Fernandes - Violin Concerto; Violin Sonata.wav
Peak level 100.0 % Extraction speed 2.1 X Range quality 100.0 % Test CRC 80177786 Copy CRC 80177786 Copy OK
No errors occurred
AccurateRip summary
Track 1 not present in databaseTrack 2 not present in databaseTrack 3 not present in databaseTrack 4 not present in databaseTrack 5 not present in databaseTrack 6 not present in databaseTrack 7 not present in databaseTrack 8 not present in database
None of the tracks are present in the AccurateRip database
End of status report
==== Log checksum 0840A7236FFDDCCA25367DBDD34846A82FD90D20243345F27D44E6005BE9853D ====
[teatrix.ru].t12684.torrent 
Торрент: Зарегистрирован [ 2016-01-09 01:15 ] · A5B71E43E855AC0E7D77EC46EED6E5D26D20C9AA

Скачать .torrent

Скачать

22 KB

Статус: проверено
Скачан: 0 раз
Размер: 262 MB
terms.php



Быстрый ответ

Имя:

      
Для отправки сообщений необходимо включить JavaScript
Показать сообщения:    

Текущее время: 09-Дек 22:24

Часовой пояс: UTC + 3


Вы можете начинать темы
Вы можете отвечать на сообщения
Вы не можете редактировать свои сообщения
Вы не можете удалять свои сообщения
Вы не можете голосовать в опросах
Вы не можете прикреплять файлы к сообщениям
Вы можете скачивать файлы