(Classical, Brass, Christmas) [CD] The Canadian Brass - Noel - 1994, FLAC (tracks+.cue), lossless


 

[Цитировать]

The Canadian Brass - Noel
Жанр: Classical, Brass, Christmas
Носитель: CD
Страна-производитель диска (релиза): США
Год издания: 1994
Издатель (лейбл): BMG Music
Аудиокодек: FLAC (*.flac)
Тип рипа: tracks+.cue
Битрейт аудио: lossless
Продолжительность: 1:04:35
Источник (релизер): DeanONH (what)
Наличие сканов в содержимом раздачи: нет
Треклист:
01. God Rest Ye Merry, Gentlemen (1:55)
02. The Holly and the Ivy (feat. James Galway) (2:49)
03. Let the Merry Bells Ring Round (4:17)
04. Short Fantasy on a Catalan Carol (feat. Angel Romero) (3:34)
05. The Angel Choir and the Trumpeter (2:28)
06. The Toy Trumpet (2:35)
07. Angels We Have Heard On High (2:23)
08. Jesu, Joy of Man's Desiring (feat. Richard Stoltzman) (3:33)
09. O Holy Night (2:42)
10. Tuba Lullaby (3:27)
11. Have Yourself a Merry Little Christmas (feat. Harolyn Blackwell) (4:47)
12. Sleigh Ride (Medley) (6:39)
13. Parade of the Wooden Soldiers (3:20)
14. The Little Drummer Boy (3:52)
15. Sheep May Safely Graze (2:33)
16. Ave Maria (feat. Jerry Hadley) (5:43)
17. Sweet Songs of Christmas (3:29)
18. Happy Christmas (feat. The King's Singers) (4:29)

Лог создания рипа

Exact Audio Copy V1.0 beta 1 from 15. November 2010
EAC extraction logfile from 26. May 2011, 9:36
Canadian Brass / Noel
Used drive : HL-DT-STDVDRAM GH40N Adapter: 1 ID: 1
Read mode : SecureUtilize accurate stream : YesDefeat audio cache : YesMake use of C2 pointers : No
Read offset correction : 667Overread into Lead-In and Lead-Out : NoFill up missing offset samples with silence : YesDelete leading and trailing silent blocks : NoNull samples used in CRC calculations : YesUsed interface : Native Win32 interface for Win NT & 2000Gap handling : Appended to previous track
Used output format : User Defined EncoderSelected bitrate : 320 kBit/sQuality : HighAdd ID3 tag : NoCommand line compressor : C:\Program Files (x86)\Exact Audio Copy\Flac\flac.exeAdditional command line options : -V -8 -T "artist=%a" -T "title=%t" -T "album=%g" -T "date=%y" -T "tracknumber=%n" -T "genre=%m" %s
TOC of the extracted CD
Track | Start | Length | Start sector | End sector --------------------------------------------------------- 1 | 0:00.00 | 1:54.48 | 0 | 8597 2 | 1:54.48 | 2:48.70 | 8598 | 21267 3 | 4:43.43 | 4:17.05 | 21268 | 40547 4 | 9:00.48 | 3:33.62 | 40548 | 56584 5 | 12:34.35 | 2:28.28 | 56585 | 67712 6 | 15:02.63 | 2:35.00 | 67713 | 79337 7 | 17:37.63 | 2:23.32 | 79338 | 90094 8 | 20:01.20 | 3:33.00 | 90095 | 106069 9 | 23:34.20 | 2:42.33 | 106070 | 118252 10 | 26:16.53 | 3:26.42 | 118253 | 133744 11 | 29:43.20 | 4:47.30 | 133745 | 155299 12 | 34:30.50 | 6:38.63 | 155300 | 185212 13 | 41:09.38 | 3:19.45 | 185213 | 200182 14 | 44:29.08 | 3:51.70 | 200183 | 217577 15 | 48:21.03 | 2:33.07 | 217578 | 229059 16 | 50:54.10 | 5:42.55 | 229060 | 254764 17 | 56:36.65 | 3:28.45 | 254765 | 270409 18 | 60:05.35 | 4:29.13 | 270410 | 290597
Track 1
Filename C:\Users\Dean\EAC Rips\Canadian Brass - Noel (1994) - CD - FLAC\01 - God Rest Ye Merry, Gentlemen.wav
Pre-gap length 0:00:02.00
Peak level 68.9 % Extraction speed 0.9 X Track quality 100.0 % Test CRC E22C65B7 Copy CRC E22C65B7 Accurately ripped (confidence 13) [09D78C57] Copy OK
Track 2
Filename C:\Users\Dean\EAC Rips\Canadian Brass - Noel (1994) - CD - FLAC\02 - The Holly and the Ivy (feat. James Galway).wav
Pre-gap length 0:00:02.10
Peak level 41.3 % Extraction speed 1.1 X Track quality 100.0 % Test CRC 69F8633B Copy CRC 69F8633B Accurately ripped (confidence 13) [A104B1CC] Copy OK
Track 3
Filename C:\Users\Dean\EAC Rips\Canadian Brass - Noel (1994) - CD - FLAC\03 - Let the Merry Bells Ring Round.wav
Pre-gap length 0:00:01.24
Peak level 45.4 % Extraction speed 1.3 X Track quality 100.0 % Test CRC 83EF93BC Copy CRC 83EF93BC Accurately ripped (confidence 12) [DD6FD720] Copy OK
Track 4
Filename C:\Users\Dean\EAC Rips\Canadian Brass - Noel (1994) - CD - FLAC\04 - Short Fantasy on a Catalan Carol (feat. Angel Romero).wav
Pre-gap length 0:00:01.93
Peak level 71.2 % Extraction speed 1.1 X Track quality 99.9 % Test CRC 648309A0 Copy CRC 648309A0 Accurately ripped (confidence 13) [F6FA8E45] Copy OK
Track 5
Filename C:\Users\Dean\EAC Rips\Canadian Brass - Noel (1994) - CD - FLAC\05 - The Angel Choir and the Trumpeter.wav
Pre-gap length 0:00:02.29
Peak level 68.2 % Extraction speed 1.3 X Track quality 100.0 % Test CRC C90BABF2 Copy CRC C90BABF2 Accurately ripped (confidence 12) [07809EF9] Copy OK
Track 6
Filename C:\Users\Dean\EAC Rips\Canadian Brass - Noel (1994) - CD - FLAC\06 - The Toy Trumpet.wav
Pre-gap length 0:00:01.24
Peak level 66.1 % Extraction speed 1.3 X Track quality 100.0 % Test CRC FB46FA7C Copy CRC FB46FA7C Accurately ripped (confidence 13) [3C1783B0] Copy OK
Track 7
Filename C:\Users\Dean\EAC Rips\Canadian Brass - Noel (1994) - CD - FLAC\07 - Angels We Have Heard On High.wav
Pre-gap length 0:00:03.13
Peak level 68.8 % Extraction speed 1.1 X Track quality 99.9 % Test CRC 785D858F Copy CRC 785D858F Accurately ripped (confidence 12) [BA929379] Copy OK
Track 8
Filename C:\Users\Dean\EAC Rips\Canadian Brass - Noel (1994) - CD - FLAC\08 - Jesu, Joy of Man's Desiring (feat. Richard Stoltzman).wav
Pre-gap length 0:00:03.26
Peak level 52.4 % Extraction speed 1.6 X Track quality 100.0 % Test CRC 90A0A450 Copy CRC 90A0A450 Accurately ripped (confidence 12) [552B5D96] Copy OK
Track 9
Filename C:\Users\Dean\EAC Rips\Canadian Brass - Noel (1994) - CD - FLAC\09 - O Holy Night.wav
Pre-gap length 0:00:03.60
Peak level 67.3 % Extraction speed 1.6 X Track quality 100.0 % Test CRC 936726F8 Copy CRC 936726F8 Accurately ripped (confidence 12) [D37A43ED] Copy OK
Track 10
Filename C:\Users\Dean\EAC Rips\Canadian Brass - Noel (1994) - CD - FLAC\10 - Tuba Lullaby.wav
Pre-gap length 0:00:02.70
Peak level 41.9 % Extraction speed 1.4 X Track quality 99.9 % Test CRC C0CCFB13 Copy CRC C0CCFB13 Accurately ripped (confidence 12) [91D84561] Copy OK
Track 11
Filename C:\Users\Dean\EAC Rips\Canadian Brass - Noel (1994) - CD - FLAC\11 - Have Yourself a Merry Little Christmas (feat. Harolyn Blackwell).wav
Pre-gap length 0:00:01.89
Peak level 57.5 % Extraction speed 1.8 X Track quality 100.0 % Test CRC B9768325 Copy CRC B9768325 Accurately ripped (confidence 12) [A13359EA] Copy OK
Track 12
Filename C:\Users\Dean\EAC Rips\Canadian Brass - Noel (1994) - CD - FLAC\12 - Sleigh Ride.wav
Pre-gap length 0:00:02.96
Peak level 83.6 % Extraction speed 2.1 X Track quality 100.0 % Test CRC 4A1FCFAF Copy CRC 4A1FCFAF Accurately ripped (confidence 13) [FAFEE113] Copy OK
Track 13
Filename C:\Users\Dean\EAC Rips\Canadian Brass - Noel (1994) - CD - FLAC\13 - Parade of the Wooden Soldiers.wav
Pre-gap length 0:00:01.17
Peak level 96.2 % Extraction speed 1.9 X Track quality 100.0 % Test CRC BF4A102D Copy CRC BF4A102D Accurately ripped (confidence 13) [8A4E0A2F] Copy OK
Track 14
Filename C:\Users\Dean\EAC Rips\Canadian Brass - Noel (1994) - CD - FLAC\14 - The Little Drummer Boy.wav
Pre-gap length 0:00:02.70
Peak level 41.3 % Extraction speed 2.1 X Track quality 100.0 % Test CRC E1764E23 Copy CRC E1764E23 Accurately ripped (confidence 13) [B1F4DC41] Copy OK
Track 15
Filename C:\Users\Dean\EAC Rips\Canadian Brass - Noel (1994) - CD - FLAC\15 - Sheep May Safely Graze.wav
Pre-gap length 0:00:02.86
Peak level 55.2 % Extraction speed 1.6 X Track quality 99.9 % Test CRC F7988386 Copy CRC F7988386 Accurately ripped (confidence 13) [AC6EBA9D] Copy OK
Track 16
Filename C:\Users\Dean\EAC Rips\Canadian Brass - Noel (1994) - CD - FLAC\16 - Ave Maria (feat. Jerry Hadley).wav
Peak level 59.7 % Extraction speed 2.3 X Track quality 100.0 % Test CRC 3D530D0E Copy CRC 3D530D0E Accurately ripped (confidence 13) [B254C059] Copy OK
Track 17
Filename C:\Users\Dean\EAC Rips\Canadian Brass - Noel (1994) - CD - FLAC\17 - Sweet Songs of Christmas.wav
Pre-gap length 0:00:02.73
Peak level 31.6 % Extraction speed 2.2 X Track quality 100.0 % Test CRC C18DDF92 Copy CRC C18DDF92 Accurately ripped (confidence 13) [EF102D8F] Copy OK
Track 18
Filename C:\Users\Dean\EAC Rips\Canadian Brass - Noel (1994) - CD - FLAC\18 - Happy Christmas (feat. The King's Singers).wav
Pre-gap length 0:00:02.29
Peak level 72.6 % Extraction speed 2.4 X Track quality 100.0 % Test CRC 24256735 Copy CRC 24256735 Accurately ripped (confidence 13) [6BE29CF6] Copy OK
All tracks accurately ripped
No errors occurred
End of status report
==== Log checksum E01DF5D6852837CA2EF14D67843B1EA4DA7E35F9A7ED6DF561A907E4B16F8AF9 ====

Содержание индексной карты (.CUE)

REM GENRE ChristmasREM DATE 1994REM DISCID FA0F2212REM COMMENT "ExactAudioCopy v1.0b1"PERFORMER "The Canadian Brass"TITLE "Noel"FILE "01 - God Rest Ye Merry, Gentlemen.wav" WAVE TRACK 01 AUDIO TITLE "God Rest Ye Merry, Gentlemen" PERFORMER "The Canadian Brass" INDEX 01 00:00:00 TRACK 02 AUDIO TITLE "The Holly and the Ivy (feat. James Galway)" PERFORMER "The Canadian Brass" INDEX 00 01:52:40FILE "02 - The Holly and the Ivy (feat. James Galway).wav" WAVE INDEX 01 00:00:00 TRACK 03 AUDIO TITLE "Let the Merry Bells Ring Round" PERFORMER "The Canadian Brass" INDEX 00 02:47:52FILE "03 - Let the Merry Bells Ring Round.wav" WAVE INDEX 01 00:00:00 TRACK 04 AUDIO TITLE "Short Fantasy on a Catalan Carol (feat. Angel Romero)" PERFORMER "The Canadian Brass" INDEX 00 04:15:10FILE "04 - Short Fantasy on a Catalan Carol (feat. Angel Romero).wav" WAVE INDEX 01 00:00:00 TRACK 05 AUDIO TITLE "The Angel Choir and the Trumpeter" PERFORMER "The Canadian Brass" INDEX 00 03:31:40FILE "05 - The Angel Choir and the Trumpeter.wav" WAVE INDEX 01 00:00:00 TRACK 06 AUDIO TITLE "The Toy Trumpet" PERFORMER "The Canadian Brass" INDEX 00 02:27:10FILE "06 - The Toy Trumpet.wav" WAVE INDEX 01 00:00:00 TRACK 07 AUDIO TITLE "Angels We Have Heard On High" PERFORMER "The Canadian Brass" INDEX 00 02:31:65FILE "07 - Angels We Have Heard On High.wav" WAVE INDEX 01 00:00:00 TRACK 08 AUDIO TITLE "Jesu, Joy of Man's Desiring (feat. Richard Stoltzman)" PERFORMER "The Canadian Brass" INDEX 00 02:20:12FILE "08 - Jesu, Joy of Man's Desiring (feat. Richard Stoltzman).wav" WAVE INDEX 01 00:00:00 TRACK 09 AUDIO TITLE "O Holy Night" PERFORMER "The Canadian Brass" INDEX 00 03:29:30FILE "09 - O Holy Night.wav" WAVE INDEX 01 00:00:00 TRACK 10 AUDIO TITLE "Tuba Lullaby" PERFORMER "The Canadian Brass" INDEX 00 02:39:55FILE "10 - Tuba Lullaby.wav" WAVE INDEX 01 00:00:00 TRACK 11 AUDIO TITLE "Have Yourself a Merry Little Christmas (feat. Harolyn Blackwell)" PERFORMER "The Canadian Brass" INDEX 00 03:24:50FILE "11 - Have Yourself a Merry Little Christmas (feat. Harolyn Blackwell).wav" WAVE INDEX 01 00:00:00 TRACK 12 AUDIO TITLE "Sleigh Ride (Medley)" PERFORMER "The Canadian Brass" INDEX 00 04:44:33FILE "12 - Sleigh Ride (Medley).wav" WAVE INDEX 01 00:00:00 TRACK 13 AUDIO TITLE "Parade of the Wooden Soldiers" PERFORMER "The Canadian Brass" INDEX 00 06:37:50FILE "13 - Parade of the Wooden Soldiers.wav" WAVE INDEX 01 00:00:00 TRACK 14 AUDIO TITLE "The Little Drummer Boy" PERFORMER "The Canadian Brass" INDEX 00 03:16:67FILE "14 - The Little Drummer Boy.wav" WAVE INDEX 01 00:00:00 TRACK 15 AUDIO TITLE "Sheep May Safely Graze" PERFORMER "The Canadian Brass" INDEX 00 03:49:05FILE "15 - Sheep May Safely Graze.wav" WAVE INDEX 01 00:00:00FILE "16 - Ave Maria (feat. Jerry Hadley).wav" WAVE TRACK 16 AUDIO TITLE "Ave Maria (feat. Jerry Hadley)" PERFORMER "The Canadian Brass" INDEX 01 00:00:00 TRACK 17 AUDIO TITLE "Sweet Songs of Christmas" PERFORMER "The Canadian Brass" INDEX 00 05:40:00FILE "17 - Sweet Songs of Christmas.wav" WAVE INDEX 01 00:00:00 TRACK 18 AUDIO TITLE "Happy Christmas (feat. The King's Singers)" PERFORMER "The Canadian Brass" INDEX 00 03:26:23FILE "18 - Happy Christmas (feat. The King's Singers).wav" WAVE INDEX 01 00:00:00

Отчет CUETools

[CUETools log; Date: 08.01.2016 21:11:32; Version: 2.1.5][CTDB TOCID: NEg0gwnShsHFJRpHWBul.WGIGmk-] found.Track | CTDB Status 1 | (15/16) Accurately ripped 2 | (15/16) Accurately ripped 3 | (16/16) Accurately ripped 4 | (16/16) Accurately ripped 5 | (16/16) Accurately ripped 6 | (16/16) Accurately ripped 7 | (16/16) Accurately ripped 8 | (16/16) Accurately ripped 9 | (16/16) Accurately ripped 10 | (16/16) Accurately ripped 11 | (16/16) Accurately ripped 12 | (16/16) Accurately ripped 13 | (16/16) Accurately ripped 14 | (16/16) Accurately ripped 15 | (16/16) Accurately ripped 16 | (16/16) Accurately ripped 17 | (16/16) Accurately ripped 18 | (16/16) Accurately ripped[AccurateRip ID: 00268888-020f06b1-fa0f2212] found.Track [ CRC | V2 ] Status 01 [09d78c57|01dcaf79] (13+21/42) Accurately ripped 02 [a104b1cc|c2a3dc0c] (13+21/42) Accurately ripped 03 [dd6fd720|3a0cb678] (12+22/42) Accurately ripped 04 [f6fa8e45|d954d3d9] (13+22/43) Accurately ripped 05 [07809ef9|68655c2d] (12+22/42) Accurately ripped 06 [3c1783b0|95a3af7a] (13+22/43) Accurately ripped 07 [ba929379|fda55867] (12+22/42) Accurately ripped 08 [552b5d96|f67d61a2] (12+22/42) Accurately ripped 09 [d37a43ed|95d00f05] (12+22/42) Accurately ripped 10 [91d84561|0b3613ac] (12+22/42) Accurately ripped 11 [a13359ea|ef924eff] (12+22/42) Accurately ripped 12 [fafee113|0a3a008b] (13+22/43) Accurately ripped 13 [8a4e0a2f|f85bfa93] (13+21/42) Accurately ripped 14 [b1f4dc41|e68b6bfb] (13+21/42) Accurately ripped 15 [ac6eba9d|2f17427d] (13+22/43) Accurately ripped 16 [b254c059|13bfe5d1] (13+22/43) Accurately ripped 17 [ef102d8f|4dcad457] (13+22/43) Accurately ripped 18 [6be29cf6|d8a62471] (13+22/43) Accurately rippedOffsetted by 178: 01 [51bab647] (04/42) Accurately ripped 02 [d1469504] (04/42) Accurately ripped 03 [9d5698f4] (04/42) Accurately ripped 04 [adb1838f] (04/43) Accurately ripped 05 [316a0b09] (04/42) Accurately ripped 06 [095514bc] (04/43) Accurately ripped 07 [978a33d9] (04/42) Accurately ripped 08 [86c63f82] (04/42) Accurately ripped 09 [8184285b] (04/42) Accurately ripped 10 [a3c4ad7b] (04/42) Accurately ripped 11 [5b7c2f58] (04/42) Accurately ripped 12 [352e8001] (04/43) Accurately ripped 13 [402349e5] (04/42) Accurately ripped 14 [68e13919] (04/42) Accurately ripped 15 [4323b9db] (04/43) Accurately ripped 16 [f35806e9] (04/43) Accurately ripped 17 [c8a29e77] (04/43) Accurately ripped 18 [ff7f6e38] (04/43) Accurately rippedOffsetted by -2096: 01 [342839d7] (00/42) No match (V2 was not tested) 02 [5d44c28c] (00/42) No match (V2 was not tested) 03 [adb2f840] (00/42) No match (V2 was not tested) 04 [d19e8dd5] (00/43) No match (V2 was not tested) 05 [1fbb6179] (00/42) No match (V2 was not tested) 06 [69879590] (00/43) No match (V2 was not tested) 07 [909ee279] (00/42) No match (V2 was not tested) 08 [6bfa5276] (00/42) No match (V2 was not tested) 09 [538fd91d] (00/42) No match (V2 was not tested) 10 [7f829571] (00/42) No match (V2 was not tested) 11 [c4dc971a] (00/42) No match (V2 was not tested) 12 [3c949a43] (00/43) No match (V2 was not tested) 13 [1348529f] (00/42) No match (V2 was not tested) 14 [af88ae01] (00/42) No match (V2 was not tested) 15 [ea2b2af6] (00/43) No match (V2 was not tested) 16 [a332b648] (00/43) No match (V2 was not tested) 17 [7a0901cf] (00/43) No match (V2 was not tested) 18 [5cac0b46] (00/43) No match (V2 was not tested)Offsetted by 4: 01 [4abd0337] (00/42) No match (V2 was not tested) 02 [3a8d5dbc] (00/42) No match (V2 was not tested) 03 [a5584308] (00/42) No match (V2 was not tested) 04 [4e801af9] (00/43) No match (V2 was not tested) 05 [3c383419] (00/42) No match (V2 was not tested) 06 [d0863388] (00/43) No match (V2 was not tested) 07 [bf89c239] (00/42) No match (V2 was not tested) 08 [ac93852e] (00/42) No match (V2 was not tested) 09 [64551829] (00/42) No match (V2 was not tested) 10 [58b830b5] (00/42) No match (V2 was not tested) 11 [044ee026] (00/42) No match (V2 was not tested) 12 [60fa324f] (00/43) No match (V2 was not tested) 13 [a566f77b] (00/42) No match (V2 was not tested) 14 [5a05ad71] (00/42) No match (V2 was not tested) 15 [d1b92bfa] (00/43) No match (V2 was not tested) 16 [011645c0] (00/43) No match (V2 was not tested) 17 [e87263df] (00/43) No match (V2 was not tested) 18 [01e6231a] (00/43) No match (V2 was not tested)
Track Peak [ CRC32 ] [W/O NULL] [ LOG ] -- 96,2 [A85611BB] [491F8064] 01 68,9 [E22C65B7] [3DE3B5A9] CRC32 02 41,3 [69F8633B] [68AEFBDC] CRC32 03 45,4 [83EF93BC] [299C07DE] CRC32 04 71,2 [648309A0] [3158FFB6] CRC32 05 68,2 [C90BABF2] [069B3F17] CRC32 06 66,1 [FB46FA7C] [273FA0E6] CRC32 07 68,8 [785D858F] [ACB3D94B] CRC32 08 52,4 [90A0A450] [BB7790D3] CRC32 09 67,3 [936726F8] [DB4D75E3] CRC32 10 41,9 [C0CCFB13] [957C0314] CRC32 11 57,5 [B9768325] [7EA8DEFE] CRC32 12 83,6 [4A1FCFAF] [5685E035] CRC32 13 96,2 [BF4A102D] [0AB9BBDB] CRC32 14 41,3 [E1764E23] [5B8F747B] CRC32 15 55,2 [F7988386] [0907DE8E] CRC32 16 59,7 [3D530D0E] [552E684A] CRC32 17 31,6 [C18DDF92] [7528A771] CRC32 18 72,6 [24256735] [70467EC2] CRC32

Об альбоме (сборнике)

The richly textured sound of The Canadian Brass is especially thrilling at Christmas time, and this new release of holiday favorites has plenty of glad tidings to cheer about. An appealing list of guest performers including James Galway, Jerry Hadley, Richard Stoltzman, The Kings Singers, Angel Romero, Harolyn Blackwell, and Arturo Sandoval add their distinctive talents to the always inventive Canadian Brass.

Состав

Bob Millikan (#1,7,9), Fred Mills, Ronald Romm, Arturo Sandoval (#1,7,9) - trumpet
James Pugh (#1,7,9), Gene Watts - trombone
George Flynn, David Taylor - bass trombone (#1,7,9)
Chuck Daellenbach - tuba
David Ohanian, Katie Dennis, Jerome Ashby, Philip Myers - French horn (#1,7,9)
Pat Rebillot (#1,7,9) - piano, celesta
Jay Leonhart - bass (#1,7,9)
Dennis Mackrel - drums (#1,7,9)
Gordon Gottlieb - percussion (#1,7,9)
Recorded at Clinton Studio A, New York on April 17 and at Soundtrack Studios, New York on April 18-20, 1994.



Показать сообщения:    

Текущее время: 11-Дек 07:15

Часовой пояс: UTC + 3


Вы не можете начинать темы
Вы не можете отвечать на сообщения
Вы не можете редактировать свои сообщения
Вы не можете удалять свои сообщения
Вы не можете голосовать в опросах
Вы не можете прикреплять файлы к сообщениям
Вы не можете скачивать файлы