[TR24][OF] Lux de caelo: Music for Christmas {Choir of Clare College, Cambridge, Graham Ross, The Dmitri Ensemble} - 2014 (Classical, Christmas)


Статистика раздачи [Обновить пиров]
Размер:  1.09 GB   |    Зарегистрирован:  10 месяцев 25 дней   |    Скачан:  0 раз
Сидов:  1  [  0 KB/s  ]   Подробная статистика пиров
 
   
 
 
 

[Цитировать]

Choir of Clare College, Cambridge, Graham Ross, The Dmitri Ensemble - Lux de caelo: Music for Christmas
Формат записи/Источник записи: [TR24][OF]
Наличие водяных знаков: Нет
Год издания/переиздания диска: 2014
Жанр: Classical, Christmas
Издатель(лейбл): Harmonia Mundi
Продолжительность: 1:08:05
Наличие сканов в содержимом раздачи: Да
Источник (релизер): what.cd, hdtracks
Контейнер: FLAC (*.flac)
Тип рипа: tracks
Разрядность: 24/96
Формат: WAV (flac.ape.wv)
Количество каналов: 2.0

Треклист

01. A boy was born Op.3 (theme) (Benjamin Britten) - 2:39
02. A babe is born (William Mathias) - 3:13
03. Frohlocket ihr Volker auf Erden Op.79, No.1 'Weihnachten' (Felix Mendelssohn-Bartholdy) - 1:25
04. The truth from above (Trad. Herefordshire Carol, arr. Ralph Vaughan Williams) - 5:00
05. Gabriel's Message (Trad. Old Basque Carol, arr. Edgar Pettman) - 2:34
06. Wie schon leuchtet der Morgenstern (Michael Praetorius) - 2:31
07. Quem pastores laudavere (Michael Praetorius) - 3:50
08. Es ist ein' Ros' entsprungen (Anon., harm. Michael Praetorius) - 1:50
09. In dulci jubilo BWV 368 (Johann Sebastian Bach) - 1:20
10. In dulci jubilo a 8 (Michael Praetorius) - 2:23
11. Coventry Carol Op.77, No.4 (Giles Swayne) - 3:57
12. A Hymn to the Mother of God (John Tavener) - 3:22
13. Lullay, my liking (Graham Ross) - 5:02
14. Riu, riu, chiu (Trad. Spanish, arr. Noah Greenberg) - 3:53
15. Tu scendi dalle stelle (Trad. Italian, arr. Graham Ross) - 2:47
16. Still, still, still (Trad. Austrian, arr. Graham Ross) - 3:23
17. Dormi, Jesu (Anton Webern) - 1:26
18. Quelle est cette odeur agreable? (Trad. French, arr. David Willcocks) - 4:14
19. Nativity Carol (John Rutter) - 4:32
20. Friede auf Erden (Arnold Schoenberg) - 8:44

Исполнители

Choir of Clare College, Cambridge
The Dmitri Ensemble (Jamie Campbell - leader)
with David Miller - theorbo (#6-8,10)
Peter Harrison - chamber organ (#6,7,9,10), celesta (#2)
Graham Ross - director
Recorded at All Hallows Church, Gospel Oak, London in January 2013.

AllMusic Review by James Manheim

This is one of a group of releases by long-established British collegiate and cathedral choirs to update their repertory a bit in the venerable medium of the Christmas album, and it may be the best of the bunch. Director Graham Ross picks a program that shifts stylistic perspectives several times, but is held together by the fact that the pieces are basically all carols (with the possible exception of the final Friede auf Erde of Schoenberg, certainly a desirable inclusion at the moment). Ross' segues are novel and even startling, but the pieces are linked together convincingly: try that from the familiar eight-voice Michael Praetorius setting of In dulci jubilo (track 10) to the modern treatment of the Coventry Carol by Giles Swayne that flows. The program stretches from traditional tunes through Bach, Mendelssohn, Schoenberg, and Webern to John Rutter, happily coexisting with the more atonal stuff; it's really a grand survey of what the idea of the Christmas carol has meant over hundreds of years. The Choir of Clare College, Cambridge, fluctuating here between about 20 and 27 voices, has a clear, appealing sound, and the small Dmitri Ensemble is of a piece with the singers. A major winner in the British holiday album genre.

Dynamic Range Meter

foobar2000 1.3.9 / Dynamic Range Meter 1.1.1log date: 2016-01-08 19:28:24
--------------------------------------------------------------------------------Analyzed: Choir of Clare College / Lux de caelo: Music for Christmas--------------------------------------------------------------------------------
DR Peak RMS Duration Track--------------------------------------------------------------------------------DR12 -0.30 dB -17.85 dB 2:39 01-A boy was born Op.3 (theme) (Britten)DR12 -0.30 dB -16.22 dB 3:13 02-A babe is born (Mathias)DR12 -2.52 dB -18.72 dB 1:25 03-Frohlocket ihr Volker auf Erden Op.79, No.1 'Weihnachten' (Mendelssohn)DR13 -5.11 dB -23.48 dB 5:00 04-The truth from above (Trad.)DR12 -4.11 dB -23.02 dB 2:34 05-Gabriel's Message (Trad.)DR13 -4.25 dB -23.83 dB 2:31 06-Wie schon leuchtet der Morgenstern (Praetorius)DR13 -7.06 dB -22.72 dB 3:50 07-Quem pastores laudavere (Praetorius)DR13 -3.85 dB -23.71 dB 1:50 08-Es ist ein' Ros' entsprungen (Anon.)DR11 -5.06 dB -20.15 dB 1:20 09-In dulci jubilo BWV 368 (J.S. Bach)DR12 -5.41 dB -21.90 dB 2:23 10-In dulci jubilo a 8 (Praetorius)DR13 -0.30 dB -22.00 dB 3:57 11-Coventry Carol Op.77, No.4 (Swayne)DR11 -0.37 dB -18.17 dB 3:22 12-A Hymn to the Mother of God (Tavener)DR13 -0.30 dB -23.78 dB 5:02 13-Lullay, my liking (Ross)DR14 -3.95 dB -22.52 dB 3:53 14-Riu, riu, chiu (Trad.)DR13 -4.36 dB -22.50 dB 2:47 15-Tu scendi dalle stelle (Trad.)DR12 -9.01 dB -26.70 dB 3:23 16-Still, still, still (Trad.)DR12 -6.54 dB -24.95 dB 1:26 17-Dormi, Jesu (Webern)DR13 -5.35 dB -23.94 dB 4:14 18-Quelle est cette odeur agreable? (Trad.)DR14 -0.30 dB -20.78 dB 4:32 19-Nativity Carol (Rutter)DR10 -1.50 dB -16.70 dB 8:44 20-Friede auf Erden (Schoenberg)--------------------------------------------------------------------------------
Number of tracks: 20Official DR value: DR12
Samplerate: 96000 HzChannels: 2Bits per sample: 24Bitrate: 2369 kbpsCodec: FLAC================================================================================
[teatrix.ru].t12686.torrent 
Торрент: Зарегистрирован [ 2016-01-09 01:15 ] · 5203B5D6D83ED508A6C886F55BAC881225766373

Скачать .torrent

Скачать

13 KB

Статус: проверено
Скачан: 0 раз
Размер: 1.09 GB
terms.php



Быстрый ответ

Имя:

      
Для отправки сообщений необходимо включить JavaScript
Показать сообщения:    

Текущее время: 03-Дек 14:40

Часовой пояс: UTC + 3


Вы можете начинать темы
Вы можете отвечать на сообщения
Вы не можете редактировать свои сообщения
Вы не можете удалять свои сообщения
Вы не можете голосовать в опросах
Вы не можете прикреплять файлы к сообщениям
Вы можете скачивать файлы