(Rococo chamber) Mondonville - Pieces de Clavecin en Sonates Avec Accompagnement de Violon (Christophe Rousset, Florence Malgoire) - 1990, APE (tracks+.cue) lossless


 

[Цитировать]

Mondonville - Pieces de Clavecin en Sonates Avec Accompagnement de Violon

Жанр: Rococo chamber
Страна-производитель диска: Made in France
Год издания диска: 1990
Издатель (лейбл): Pierre Verany
Номер по каталогу: PV.790093
Дата записи: 1990
Аудиокодек: APE
Тип рипа: tracks+.cue
Битрейт аудио: lossless
Продолжительность: 61 минута
Источник: релизер
сайт-источник/ник/другое: Денис Куталёв
Наличие сканов в содержимом раздачи: да
Треклист:

скрытый текст

1. Premiere Son: Ov
2. Premiere Son: Aria
3. Premiere Son: Giga
4. Deuxieme Son: Allegro
5. Deuxieme Son: Aria
6. Deuxieme Son: Giga
7. Troisieme Son: Allegro
8. Troisieme Son: Aria
9. Troisieme Son: Allegro
10. Quatrieme Son: Allegro
11. Quatrieme Son: Aria
12. Quatrieme Son: Giga
13. Cinquieme Son: Allegro
14. Cinquieme Son: Aria
15. Cinquieme Son: Allegro
16. Sixieme Son: Con
17. Sixieme Son: Larghetto
18. Sixieme Son: Giga
Исполнители:

скрытый текст

Jean-Joseph Cassanea de Mondonville
Pieces de Clavecin en Sonates Avec Accompagnement de Violon
Florence Malgoire (скрипка)
Christophe Rousset (клавесин)
Записано 2/3 июня 1990 г.

Лог создания рипа

Exact Audio Copy V1.0 beta 1 from 15. November 2010
EAC extraction logfile from 23. June 2011, 23:16
Christophe Rousset, Harpsichord; Florence Malgoire, Violin / Mondonville: Sonatas for Harpsichord and Violin
Used drive : TSSTcorpCDDVDW TS-L633C Adapter: 0 ID: 1
Read mode : SecureUtilize accurate stream : YesDefeat audio cache : YesMake use of C2 pointers : No
Read offset correction : 6Overread into Lead-In and Lead-Out : NoFill up missing offset samples with silence : YesDelete leading and trailing silent blocks : NoNull samples used in CRC calculations : YesUsed interface : Installed external ASPI interfaceGap handling : Appended to previous track
Used output format : Monkey's Audio Lossless Encoder v3.99 DLLSample format : Normal Lossless Compression
TOC of the extracted CD
Track | Start | Length | Start sector | End sector --------------------------------------------------------- 1 | 0:00.33 | 3:27.30 | 33 | 15587 2 | 3:27.63 | 2:01.42 | 15588 | 24704 3 | 5:29.30 | 3:14.13 | 24705 | 39267 4 | 8:43.43 | 2:37.60 | 39268 | 51102 5 | 11:21.28 | 2:36.15 | 51103 | 62817 6 | 13:57.43 | 2:31.17 | 62818 | 74159 7 | 16:28.60 | 4:08.23 | 74160 | 92782 8 | 20:37.08 | 3:58.67 | 92783 | 110699 9 | 24:36.00 | 3:19.45 | 110700 | 125669 10 | 27:55.45 | 6:07.10 | 125670 | 153204 11 | 34:02.55 | 2:37.18 | 153205 | 164997 12 | 36:39.73 | 3:50.62 | 164998 | 182309 13 | 40:30.60 | 2:45.25 | 182310 | 194709 14 | 43:16.10 | 2:43.20 | 194710 | 206954 15 | 45:59.30 | 3:08.73 | 206955 | 221127 16 | 49:08.28 | 3:25.15 | 221128 | 236517 17 | 52:33.43 | 4:49.15 | 236518 | 258207 18 | 57:22.58 | 2:56.07 | 258208 | 271414
Track 1
Filename C:\раздачи\Mondonville - Sonatas for Harpsichord & Violin (Rousset, Malgoire)\01 Sonata 1 Overture.ape
Pre-gap length 0:00:02.44
Peak level 82.7 % Extraction speed 2.2 X Track quality 100.0 % Test CRC 75BA67F3 Copy CRC 75BA67F3 Track not present in AccurateRip database Copy OK
Track 2
Filename C:\раздачи\Mondonville - Sonatas for Harpsichord & Violin (Rousset, Malgoire)\02 Sonata 1 Aria.ape
Pre-gap length 0:00:00.04
Peak level 43.2 % Extraction speed 2.0 X Track quality 100.0 % Test CRC 55B71C1B Copy CRC 55B71C1B Track not present in AccurateRip database Copy OK
Track 3
Filename C:\раздачи\Mondonville - Sonatas for Harpsichord & Violin (Rousset, Malgoire)\03 Sonata 1 Gigue.ape
Pre-gap length 0:00:00.02
Peak level 84.0 % Extraction speed 2.5 X Track quality 100.0 % Test CRC 4B971E77 Copy CRC 4B971E77 Track not present in AccurateRip database Copy OK
Track 4
Filename C:\раздачи\Mondonville - Sonatas for Harpsichord & Violin (Rousset, Malgoire)\04 Sonata 2 Allegro.ape
Pre-gap length 0:00:03.57
Peak level 67.1 % Extraction speed 2.5 X Track quality 100.0 % Test CRC 98D341C1 Copy CRC 98D341C1 Track not present in AccurateRip database Copy OK
Track 5
Filename C:\раздачи\Mondonville - Sonatas for Harpsichord & Violin (Rousset, Malgoire)\05 Sonata 2 Aria.ape
Pre-gap length 0:00:00.17
Peak level 38.6 % Extraction speed 2.6 X Track quality 100.0 % Test CRC 5FE1B4CE Copy CRC 5FE1B4CE Track not present in AccurateRip database Copy OK
Track 6
Filename C:\раздачи\Mondonville - Sonatas for Harpsichord & Violin (Rousset, Malgoire)\06 Sonata 2 Gigue.ape
Peak level 100.0 % Extraction speed 2.7 X Track quality 100.0 % Test CRC 51E832E1 Copy CRC 51E832E1 Track not present in AccurateRip database Copy OK
Track 7
Filename C:\раздачи\Mondonville - Sonatas for Harpsichord & Violin (Rousset, Malgoire)\07 Sonata 3 Allegro.ape
Pre-gap length 0:00:02.46
Peak level 80.0 % Extraction speed 3.1 X Track quality 100.0 % Test CRC AAF0AEBF Copy CRC AAF0AEBF Track not present in AccurateRip database Copy OK
Track 8
Filename C:\раздачи\Mondonville - Sonatas for Harpsichord & Violin (Rousset, Malgoire)\08 Sonata 3 Aria.ape
Pre-gap length 0:00:01.00
Peak level 77.3 % Extraction speed 3.3 X Track quality 100.0 % Test CRC 205E7E1A Copy CRC 205E7E1A Track not present in AccurateRip database Copy OK
Track 9
Filename C:\раздачи\Mondonville - Sonatas for Harpsichord & Violin (Rousset, Malgoire)\09 Sonata 3 Allegro.ape
Peak level 67.6 % Extraction speed 3.3 X Track quality 100.0 % Test CRC 12A8BA99 Copy CRC 12A8BA99 Track not present in AccurateRip database Copy OK
Track 10
Filename C:\раздачи\Mondonville - Sonatas for Harpsichord & Violin (Rousset, Malgoire)\10 Sonata 4 Allegro.ape
Pre-gap length 0:00:03.53
Peak level 100.0 % Extraction speed 3.8 X Track quality 100.0 % Test CRC 4ABC0183 Copy CRC 4ABC0183 Track not present in AccurateRip database Copy OK
Track 11
Filename C:\раздачи\Mondonville - Sonatas for Harpsichord & Violin (Rousset, Malgoire)\11 Sonata 4 Aria.ape
Pre-gap length 0:00:00.02
Peak level 58.9 % Extraction speed 3.5 X Track quality 100.0 % Test CRC E38C0D80 Copy CRC E38C0D80 Track not present in AccurateRip database Copy OK
Track 12
Filename C:\раздачи\Mondonville - Sonatas for Harpsichord & Violin (Rousset, Malgoire)\12 Sonata 4 Gigue.ape
Peak level 96.0 % Extraction speed 3.9 X Track quality 100.0 % Test CRC 766256C0 Copy CRC 766256C0 Track not present in AccurateRip database Copy OK
Track 13
Filename C:\раздачи\Mondonville - Sonatas for Harpsichord & Violin (Rousset, Malgoire)\13 Sonata 5 Allegro.ape
Pre-gap length 0:00:02.33
Peak level 76.9 % Extraction speed 3.7 X Track quality 100.0 % Test CRC FC38EA0D Copy CRC FC38EA0D Track not present in AccurateRip database Copy OK
Track 14
Filename C:\раздачи\Mondonville - Sonatas for Harpsichord & Violin (Rousset, Malgoire)\14 Sonata 5 Aria.ape
Pre-gap length 0:00:00.02
Peak level 49.5 % Extraction speed 3.8 X Track quality 100.0 % Test CRC 444848DB Copy CRC 444848DB Track not present in AccurateRip database Copy OK
Track 15
Filename C:\раздачи\Mondonville - Sonatas for Harpsichord & Violin (Rousset, Malgoire)\15 Sonata 5 Allegro.ape
Peak level 67.0 % Extraction speed 4.0 X Track quality 100.0 % Test CRC AB51ADB3 Copy CRC AB51ADB3 Track not present in AccurateRip database Copy OK
Track 16
Filename C:\раздачи\Mondonville - Sonatas for Harpsichord & Violin (Rousset, Malgoire)\16 Sonata 6 Concerto.ape
Pre-gap length 0:00:03.46
Peak level 61.2 % Extraction speed 3.1 X Track quality 99.9 % Test CRC 647F42BB Copy CRC 647F42BB Track not present in AccurateRip database Copy OK
Track 17
Filename C:\раздачи\Mondonville - Sonatas for Harpsichord & Violin (Rousset, Malgoire)\17 Sonata 6 Larghetto.ape
Pre-gap length 0:00:00.04
Peak level 68.7 % Extraction speed 3.6 X Track quality 99.9 % Test CRC 3B6B552D Copy CRC 3B6B552D Track not present in AccurateRip database Copy OK
Track 18
Filename C:\раздачи\Mondonville - Sonatas for Harpsichord & Violin (Rousset, Malgoire)\18 Sonata 6 Gigue.ape
Peak level 76.9 % Extraction speed 4.0 X Track quality 100.0 % Test CRC 87722592 Copy CRC 87722592 Track not present in AccurateRip database Copy OK
None of the tracks are present in the AccurateRip database
No errors occurred
End of status report
==== Log checksum 7E0A5D769F033D1C7D6511D6A2348BAE7B3F934067586159162A1D7F17386163 ====

Содержание индексной карты (.CUE)

REM GENRE ClassicalREM DATE 1990REM DISCID FE0E2212REM COMMENT "ExactAudioCopy v1.0b1"PERFORMER "Christophe Rousset, Harpsichord; Florence Malgoire, Violin"TITLE "Mondonville: Sonatas for Harpsichord and Violin"FILE "01 Sonata 1 Overture.wav" WAVE TRACK 01 AUDIO TITLE "Sonata 1 Overture" PERFORMER "Christophe Rousset, Harpsichord; Florence Malgoire, Violin" PREGAP 00:00:33 INDEX 01 00:00:00 TRACK 02 AUDIO TITLE "Sonata 1 Aria" PERFORMER "Christophe Rousset, Harpsichord; Florence Malgoire, Violin" INDEX 00 03:27:27FILE "02 Sonata 1 Aria.wav" WAVE INDEX 01 00:00:00 TRACK 03 AUDIO TITLE "Sonata 1 Gigue" PERFORMER "Christophe Rousset, Harpsichord; Florence Malgoire, Violin" INDEX 00 02:01:40FILE "03 Sonata 1 Gigue.wav" WAVE INDEX 01 00:00:00 TRACK 04 AUDIO TITLE "Sonata 2 Allegro" PERFORMER "Christophe Rousset, Harpsichord; Florence Malgoire, Violin" INDEX 00 03:10:45FILE "04 Sonata 2 Allegro.wav" WAVE INDEX 01 00:00:00 TRACK 05 AUDIO TITLE "Sonata 2 Aria" PERFORMER "Christophe Rousset, Harpsichord; Florence Malgoire, Violin" INDEX 00 02:37:47FILE "05 Sonata 2 Aria.wav" WAVE INDEX 01 00:00:00FILE "06 Sonata 2 Gigue.wav" WAVE TRACK 06 AUDIO TITLE "Sonata 2 Gigue" PERFORMER "Christophe Rousset, Harpsichord; Florence Malgoire, Violin" INDEX 01 00:00:00 TRACK 07 AUDIO TITLE "Sonata 3 Allegro" PERFORMER "Christophe Rousset, Harpsichord; Florence Malgoire, Violin" INDEX 00 02:28:57FILE "07 Sonata 3 Allegro.wav" WAVE INDEX 01 00:00:00 TRACK 08 AUDIO TITLE "Sonata 3 Aria" PERFORMER "Christophe Rousset, Harpsichord; Florence Malgoire, Violin" INDEX 00 04:07:23FILE "08 Sonata 3 Aria.wav" WAVE INDEX 01 00:00:00FILE "09 Sonata 3 Allegro.wav" WAVE TRACK 09 AUDIO TITLE "Sonata 3 Allegro" PERFORMER "Christophe Rousset, Harpsichord; Florence Malgoire, Violin" INDEX 01 00:00:00 TRACK 10 AUDIO TITLE "Sonata 4 Allegro" PERFORMER "Christophe Rousset, Harpsichord; Florence Malgoire, Violin" INDEX 00 03:16:05FILE "10 Sonata 4 Allegro.wav" WAVE INDEX 01 00:00:00 TRACK 11 AUDIO TITLE "Sonata 4 Aria" PERFORMER "Christophe Rousset, Harpsichord; Florence Malgoire, Violin" INDEX 00 06:07:08FILE "11 Sonata 4 Aria.wav" WAVE INDEX 01 00:00:00FILE "12 Sonata 4 Gigue.wav" WAVE TRACK 12 AUDIO TITLE "Sonata 4 Gigue" PERFORMER "Christophe Rousset, Harpsichord; Florence Malgoire, Violin" INDEX 01 00:00:00 TRACK 13 AUDIO TITLE "Sonata 5 Allegro" PERFORMER "Christophe Rousset, Harpsichord; Florence Malgoire, Violin" INDEX 00 03:48:37FILE "13 Sonata 5 Allegro.wav" WAVE INDEX 01 00:00:00 TRACK 14 AUDIO TITLE "Sonata 5 Aria" PERFORMER "Christophe Rousset, Harpsichord; Florence Malgoire, Violin" INDEX 00 02:45:23FILE "14 Sonata 5 Aria.wav" WAVE INDEX 01 00:00:00FILE "15 Sonata 5 Allegro.wav" WAVE TRACK 15 AUDIO TITLE "Sonata 5 Allegro" PERFORMER "Christophe Rousset, Harpsichord; Florence Malgoire, Violin" INDEX 01 00:00:00 TRACK 16 AUDIO TITLE "Sonata 6 Concerto" PERFORMER "Christophe Rousset, Harpsichord; Florence Malgoire, Violin" INDEX 00 03:05:38FILE "16 Sonata 6 Concerto.wav" WAVE INDEX 01 00:00:00 TRACK 17 AUDIO TITLE "Sonata 6 Larghetto" PERFORMER "Christophe Rousset, Harpsichord; Florence Malgoire, Violin" INDEX 00 03:25:12FILE "17 Sonata 6 Larghetto.wav" WAVE INDEX 01 00:00:00FILE "18 Sonata 6 Gigue.wav" WAVE TRACK 18 AUDIO TITLE "Sonata 6 Gigue" PERFORMER "Christophe Rousset, Harpsichord; Florence Malgoire, Violin" INDEX 01 00:00:00



Показать сообщения:    

Текущее время: 08-Дек 05:17

Часовой пояс: UTC + 3


Вы не можете начинать темы
Вы не можете отвечать на сообщения
Вы не можете редактировать свои сообщения
Вы не можете удалять свои сообщения
Вы не можете голосовать в опросах
Вы не можете прикреплять файлы к сообщениям
Вы не можете скачивать файлы