Сирано Де Бержерак (Максим Соколов) [2012 г., Героическая комедия, WEB-DLRip] Калининградский областной драматический театр


 

[Цитировать]

Сирано Де Бержерак Название театра: Калининградский областной драматический театр.
Год выпуска: 2012.
Жанр: Героическая комедия в 2-х действиях.
Продолжительность: 02:22:15.
Режиссер-постановщик: Максим Соколов (Москва).
Действующие лица и исполнители:
Сирано - Алексей Переберин,
Роксана - Любовь Орлова,
Монфлёри - Михаил Шевяков,
Ле-Бре - Геннадий Филиппович,
Карбон де Кастель-Жалу, капитан - Василий Швечков (мл.),
Кристиан де Навилье - Павел Ботвиновский,
Граф де Гиш - Сергей Чернов,
Рагно - заслуженный артист России Анатолий Лукин,
Дуэнья Роксаны - Елена Носырева,
Капуцин - Михаил Шевяков,
Гасконцы - Сергей Борисов, Павел Ботвиновский, Антон Захаров, Артем Лернер, Павел Сибиряков, Михаил Шевяков.
О спектакле:
По одноименной пьесе Эдмона Ростана.
Трепетная, нежная героиня Роксана искренне верит во встречу с "принцем" - красавцем, храбрецом и непременно - с душой поэта. Только вот у красавца и храбреца душа оказывается самая, что ни на есть прозаическая. А редким поэтическим даром, что так дорог сердцу красавицы, обладает не он, а ее странный, нелепый кузен, с огромным уродливым носом и такой же огромной гордыней.

Дополнительная информация:
Страна: Россия .
Автор: Эдмон Ростан.
Перевод: НиколаЙ Любимов.
Художник-постановщик: Надежда Осипова (Санкт-Петербург).
Художник по свету: Людмила Воронина.
Фехтование: Павел Сибиряков, Павел Ботвиновский.
Художник по гриму: Вероника Никогосян.
В спектакле звучит музыка: Иоганна Себастьяна Баха, Людвига ван Бетховена, Антонио Вивальди, Руиши Сакамото, Джои Хаяши, Альфреда Шнитке.
Премьера спектакля состоялась 6 октября 2012 года.

О спектакле.
Релиз
Рип sharky.

Качество видео:...WEB-DLRip
Формат:.................AVI
Видео:..704x384 (1.83:1), 25 fps, DivX Codec 4.x ~1323 kbps avg, 0.20 bit/pixel
Аудио:..44.100 kHz, MPEG Layer 3, 2 ch, ~128.00 kbps avg

Отчет MI

Общее
Полное имя : Sirano.de.Berzherak_Kaliningradskij.ODT.2012.DivX.WEB-DLRip.fenixclub.avi
Format : AVI
Format/Info : Audio Video Interleave
File size : 1.45 GiB
Duration : 2h 22mn
Overall bit rate : 1 461 Kbps
Video
ID : 0
Format : MPEG-4 Visual
Format settings, BVOP : Yes
Format settings, QPel : No
Format settings, GMC : No warppoints
Format settings, Matrix : Default (H.263)
Codec ID : DX50
Codec ID/Hint : DivX 5
Duration : 2h 22mn
Bit rate : 1 323 Kbps
Width : 704 pixels
Height : 384 pixels
Display aspect ratio : 1.85:1
Frame rate : 25.000 fps
Color space : YUV
Chroma subsampling : 4:2:0
Bit depth : 8 bits
Scan type : Progressive
Compression mode : Lossy
Bits/(Pixel*Frame) : 0.196
Stream size : 1.31 GiB (91%)
Title : Video
Writing library : DivX 3013
Audio
ID : 1
Format : MPEG Audio
Format version : Version 1
Format profile : Layer 3
Codec ID : 55
Codec ID/Hint : MP3
Duration : 2h 22mn
Bit rate mode : Constant
Bit rate : 128 Kbps
Channel(s) : 2 channels
Sampling rate : 44.1 KHz
Compression mode : Lossy
Stream size : 130 MiB (9%)
Alignment : Split accross interleaves
Interleave, duration : 40 ms (1.00 video frame)
Interleave, preload duratio : 500 ms
Title : Audio

Скриншоты


Альтернативный хост





Показать сообщения:    

Текущее время: 05-Дек 01:26

Часовой пояс: UTC + 3


Вы не можете начинать темы
Вы не можете отвечать на сообщения
Вы не можете редактировать свои сообщения
Вы не можете удалять свои сообщения
Вы не можете голосовать в опросах
Вы не можете прикреплять файлы к сообщениям
Вы не можете скачивать файлы