(Classical) Franz Schubert — Symphonies № 1 & 2 (D 82 & 125) (Gunter Wand) — 2002, FLAC (tracks+.cue) lossless


 

[Цитировать]

Symphonies № 1 & 2 (D 82 & 125)-
Жанр: Classical
Страна-производитель диска: США
Издатель (лейбл): RCA Victor Red Seal
Номер по каталогу: GD 60097
Год издания диска: April, 2, 2002
Годы записи фонограмм: 21.12.1978 (1) & 29.9.1979 (2), WDR, Grosser Sendsaal (now Klaus von Bismark Saal), Cologne
Композитор: Franz Peter Schubert
Исполнительский коллектив: Kölner Rundfunk-Sinfonie-Orchester under Günter Wand
Аудио кодек: flac
Тип рипа: tracks+.cue
Битрейт аудио: lossless
Продолжительность: 00h57'30"
Источник: web
Наличие сканов в содержимом раздачи: нет-Треклист:
(01-04) Symphony № 1 D-Dur D 82 [29'19"]
(05-08) Symphony № 2 B-Dur D 125 [28'11"]-

EAC log

Exact Audio Copy V0.99 prebeta 4 from 23. January 2008
EAC extraction logfile from 13. December 2008, 22:06
Kцlner Rundfunk-Sinfonie-Orchester, Gьnter Wand / Schubert - Symphony No.1, D.82 - No.2, D.125 - Wand-KRSO
Used drive  : Optiarc DVD RW AD-7170S   Adapter: 2  ID: 1
Read mode               : Secure
Utilize accurate stream : Yes
Defeat audio cache      : Yes
Make use of C2 pointers : No
Read offset correction                      : 48
Overread into Lead-In and Lead-Out          : No
Fill up missing offset samples with silence : Yes
Delete leading and trailing silent blocks   : No
Null samples used in CRC calculations       : Yes
Used interface                              : Native Win32 interface for Win NT & 2000
Gap handling                                : Appended to previous track
Used output format              : User Defined Encoder
Selected bitrate                : 320 kBit/s
Quality                         : High
Add ID3 tag                     : No
Command line compressor         : F:\Programme\Exact Audio Copy\FLAC\FLAC.EXE
Additional command line options : -V -8 -T "artist=%a" -T "title=%t" -T "album=%g" -T "date=%y" -T "tracknumber=%n" -T "genre=%m" %s
TOC of the extracted CD
     Track |   Start  |  Length  | Start sector | End sector
    ---------------------------------------------------------
        1  |  0:00.32 | 10:05.00 |        32    |    45406
        2  | 10:05.32 |  7:53.00 |     45407    |    80881
        3  | 17:58.32 |  4:48.40 |     80882    |   102521
        4  | 22:46.72 |  6:32.33 |    102522    |   131954
        5  | 29:19.30 | 10:42.50 |    131955    |   180154
        6  | 40:02.05 |  8:36.25 |    180155    |   218879
        7  | 48:38.30 |  2:50.30 |    218880    |   231659
        8  | 51:28.60 |  6:01.17 |    231660    |   258751
Track  1
     Filename G:\Klassik\Schubert\Kцlner Rundfunk-Sinfonie-Orchester, Gьnter Wand - 1980 - Schubert - Symphony No.1, D.82 - No.2, D.125 - Wand-KRSO\01 - Schubert - Symphony No.1, D.82 - I. Adagio - Allegro vivace.wav
     Pre-gap length  0:00:02.32
     Peak level 87.6 %
     Track quality 99.9 %
     Test CRC A8F392F2
     Copy CRC A8F392F2
     Accurately ripped (confidence 3)  [01804EDA]
     Copy OK
Track  2
     Filename G:\Klassik\Schubert\Kцlner Rundfunk-Sinfonie-Orchester, Gьnter Wand - 1980 - Schubert - Symphony No.1, D.82 - No.2, D.125 - Wand-KRSO\02 - Schubert - Symphony No.1, D.82 - II. Andante.wav
     Pre-gap length  0:00:06.17
     Peak level 30.1 %
     Track quality 100.0 %
     Test CRC 55F391F1
     Copy CRC 55F391F1
     Accurately ripped (confidence 3)  [A68BA826]
     Copy OK
Track  3
     Filename G:\Klassik\Schubert\Kцlner Rundfunk-Sinfonie-Orchester, Gьnter Wand - 1980 - Schubert - Symphony No.1, D.82 - No.2, D.125 - Wand-KRSO\03 - Schubert - Symphony No.1, D.82 - III. Menuetto. Allegro.wav
     Pre-gap length  0:00:05.17
     Peak level 67.7 %
     Track quality 99.9 %
     Test CRC D7E0717D
     Copy CRC D7E0717D
     Accurately ripped (confidence 3)  [D816BFD1]
     Copy OK
Track  4
     Filename G:\Klassik\Schubert\Kцlner Rundfunk-Sinfonie-Orchester, Gьnter Wand - 1980 - Schubert - Symphony No.1, D.82 - No.2, D.125 - Wand-KRSO\04 - Schubert - Symphony No.1, D.82 - IV. Allegro vivace.wav
     Peak level 81.3 %
     Track quality 100.0 %
     Test CRC B1CA8F60
     Copy CRC B1CA8F60
     Accurately ripped (confidence 3)  [77A0A114]
     Copy OK
Track  5
     Filename G:\Klassik\Schubert\Kцlner Rundfunk-Sinfonie-Orchester, Gьnter Wand - 1980 - Schubert - Symphony No.1, D.82 - No.2, D.125 - Wand-KRSO\05 - Schubert - Symphony No.2, D.125 - I. Largo - Allegro vivace.wav
     Pre-gap length  0:00:15.15
     Peak level 88.2 %
     Track quality 100.0 %
     Test CRC E88F85FB
     Copy CRC E88F85FB
     Accurately ripped (confidence 3)  [F18C11C0]
     Copy OK
Track  6
     Filename G:\Klassik\Schubert\Kцlner Rundfunk-Sinfonie-Orchester, Gьnter Wand - 1980 - Schubert - Symphony No.1, D.82 - No.2, D.125 - Wand-KRSO\06 - Schubert - Symphony No.2, D.125 - II. Andante.wav
     Pre-gap length  0:00:07.65
     Peak level 47.7 %
     Track quality 100.0 %
     Test CRC C49A9D68
     Copy CRC C49A9D68
     Accurately ripped (confidence 3)  [09C85382]
     Copy OK
Track  7
     Filename G:\Klassik\Schubert\Kцlner Rundfunk-Sinfonie-Orchester, Gьnter Wand - 1980 - Schubert - Symphony No.1, D.82 - No.2, D.125 - Wand-KRSO\07 - Schubert - Symphony No.2, D.125 - III. Menuetto. Allegro vivace.wav
     Pre-gap length  0:00:04.15
     Peak level 66.8 %
     Track quality 100.0 %
     Test CRC 0F4D52B5
     Copy CRC 0F4D52B5
     Accurately ripped (confidence 3)  [C75C3F23]
     Copy OK
Track  8
     Filename G:\Klassik\Schubert\Kцlner Rundfunk-Sinfonie-Orchester, Gьnter Wand - 1980 - Schubert - Symphony No.1, D.82 - No.2, D.125 - Wand-KRSO\08 - Schubert - Symphony No.2, D.125 - IV. Presto vivace.wav
     Pre-gap length  0:00:02.65
     Peak level 72.3 %
     Track quality 100.0 %
     Test CRC A4DF51E0
     Copy CRC A4DF51E0
     Accurately ripped (confidence 3)  [E8AE82FE]
     Copy OK
All tracks accurately ripped
No errors occurred
End of status report

-

CUE

REM GENRE Classical
REM DATE 1980
REM DISCID 5C0D7A08
REM COMMENT "ExactAudioCopy v0.99pb4"
PERFORMER "Kцlner Rundfunk-Sinfonie-Orchester, Gьnter Wand"
TITLE "Schubert - Symphony No.1, D.82 - No.2, D.125 - Wand-KRSO"
FILE "Kцlner Rundfunk-Sinfonie-Orchester, Gьnter Wand - 1980 - Schubert - Symphony No.1, D.82 - No.2, D.125 - Wand-KRSO\01 - Schubert - Symphony No.1, D.82 - I. Adagio - Allegro vivace.wav" WAVE
  TRACK 01 AUDIO
    TITLE "Schubert - Symphony No.1, D.82 - I. Adagio - Allegro vivace"
    PERFORMER "Kцlner Rundfunk-Sinfonie-Orchester, Gьnter Wand"
    PREGAP 00:00:32
    INDEX 01 00:00:00
  TRACK 02 AUDIO
    TITLE "Schubert - Symphony No.1, D.82 - II. Andante"
    PERFORMER "Kцlner Rundfunk-Sinfonie-Orchester, Gьnter Wand"
    INDEX 00 09:58:58
FILE "Kцlner Rundfunk-Sinfonie-Orchester, Gьnter Wand - 1980 - Schubert - Symphony No.1, D.82 - No.2, D.125 - Wand-KRSO\02 - Schubert - Symphony No.1, D.82 - II. Andante.wav" WAVE
    INDEX 01 00:00:00
  TRACK 03 AUDIO
    TITLE "Schubert - Symphony No.1, D.82 - III. Menuetto. Allegro"
    PERFORMER "Kцlner Rundfunk-Sinfonie-Orchester, Gьnter Wand"
    INDEX 00 07:47:58
FILE "Kцlner Rundfunk-Sinfonie-Orchester, Gьnter Wand - 1980 - Schubert - Symphony No.1, D.82 - No.2, D.125 - Wand-KRSO\03 - Schubert - Symphony No.1, D.82 - III. Menuetto. Allegro.wav" WAVE
    INDEX 01 00:00:00
FILE "Kцlner Rundfunk-Sinfonie-Orchester, Gьnter Wand - 1980 - Schubert - Symphony No.1, D.82 - No.2, D.125 - Wand-KRSO\04 - Schubert - Symphony No.1, D.82 - IV. Allegro vivace.wav" WAVE
  TRACK 04 AUDIO
    TITLE "Schubert - Symphony No.1, D.82 - IV. Allegro vivace"
    PERFORMER "Kцlner Rundfunk-Sinfonie-Orchester, Gьnter Wand"
    INDEX 01 00:00:00
  TRACK 05 AUDIO
    TITLE "Schubert - Symphony No.2, D.125 - I. Largo - Allegro vivace"
    PERFORMER "Kцlner Rundfunk-Sinfonie-Orchester, Gьnter Wand"
    INDEX 00 06:17:18
FILE "Kцlner Rundfunk-Sinfonie-Orchester, Gьnter Wand - 1980 - Schubert - Symphony No.1, D.82 - No.2, D.125 - Wand-KRSO\05 - Schubert - Symphony No.2, D.125 - I. Largo - Allegro vivace.wav" WAVE
    INDEX 01 00:00:00
  TRACK 06 AUDIO
    TITLE "Schubert - Symphony No.2, D.125 - II. Andante"
    PERFORMER "Kцlner Rundfunk-Sinfonie-Orchester, Gьnter Wand"
    INDEX 00 10:34:60
FILE "Kцlner Rundfunk-Sinfonie-Orchester, Gьnter Wand - 1980 - Schubert - Symphony No.1, D.82 - No.2, D.125 - Wand-KRSO\06 - Schubert - Symphony No.2, D.125 - II. Andante.wav" WAVE
    INDEX 01 00:00:00
  TRACK 07 AUDIO
    TITLE "Schubert - Symphony No.2, D.125 - III. Menuetto. Allegro vivace"
    PERFORMER "Kцlner Rundfunk-Sinfonie-Orchester, Gьnter Wand"
    INDEX 00 08:32:10
FILE "Kцlner Rundfunk-Sinfonie-Orchester, Gьnter Wand - 1980 - Schubert - Symphony No.1, D.82 - No.2, D.125 - Wand-KRSO\07 - Schubert - Symphony No.2, D.125 - III. Menuetto. Allegro vivace.wav" WAVE
    INDEX 01 00:00:00
  TRACK 08 AUDIO
    TITLE "Schubert - Symphony No.2, D.125 - IV. Presto vivace"
    PERFORMER "Kцlner Rundfunk-Sinfonie-Orchester, Gьnter Wand"
    INDEX 00 02:47:40
FILE "Kцlner Rundfunk-Sinfonie-Orchester, Gьnter Wand - 1980 - Schubert - Symphony No.1, D.82 - No.2, D.125 - Wand-KRSO\08 - Schubert - Symphony No.2, D.125 - IV. Presto vivace.wav" WAVE
    INDEX 01 00:00:00
-



Показать сообщения:    

Текущее время: 03-Дек 12:38

Часовой пояс: UTC + 3


Вы не можете начинать темы
Вы не можете отвечать на сообщения
Вы не можете редактировать свои сообщения
Вы не можете удалять свои сообщения
Вы не можете голосовать в опросах
Вы не можете прикреплять файлы к сообщениям
Вы не можете скачивать файлы