(Classical) Franz Schubert — Symphonies № 3, 5 & 6 (D 200, 485 & 589) (Thomas Beecham) — 1999, FLAC (tracks+.cue) lossless


 

[Цитировать]

Symphonies № 3, 5 & 6 (D 200, 485 & 589)-
Жанр: Classical
Страна-производитель диска: Великобритания
Издатель (лейбл): EMI Classics
ASIN: B00000IOC2
Год издания диска: May, 4, 1999
Годы записи фонограмм: 1956, 1960
Композитор: Franz Schubert
Исполнительский коллектив: Royal Philharmonic Orchestra under Sir Thomas Beecham
Аудио кодек: flac
Тип рипа: tracks+.cue
Битрейт аудио: lossless
Продолжительность: 01h18'51"
Источник: web
Наличие сканов в содержимом раздачи: нет-Треклист:
(01-04) Symphony № 3 D-Dur D 200 [23'36"]
(05-08) Symphony № 5 B-Dur D 485 [25'52"]
(09-12) Symphony № 6 C-Dur D 589 [29'22"]-

EAC log

Exact Audio Copy V0.99 prebeta 5 from 4. May 2009
EAC extraction logfile from 22. July 2009, 12:47
Franz Schubert / Symphonies Nos. 3, 5, & 6 (Sir Thomas Beecham & the Royal Philharmonic Orchestra)
Used drive  : ATAPI   DVD A  DH16A3L   Adapter: 0  ID: 1
Read mode               : Secure
Utilize accurate stream : Yes
Defeat audio cache      : Yes
Make use of C2 pointers : No
Read offset correction                      : 6
Overread into Lead-In and Lead-Out          : No
Fill up missing offset samples with silence : Yes
Delete leading and trailing silent blocks   : No
Null samples used in CRC calculations       : Yes
Used interface                              : Native Win32 interface for Win NT & 2000
Gap handling                                : Appended to previous track
Used output format              : User Defined Encoder
Selected bitrate                : 512 kBit/s
Quality                         : High
Add ID3 tag                     : No
Command line compressor         : C:\Program Files\Exact Audio Copy\flac.exe
Additional command line options : -V -8 -T "artist=%a" -T "title=%t" -T "album=%g" -T "date=%y" -T "tracknumber=%n" -T "genre=%m" %s
TOC of the extracted CD
     Track |   Start  |  Length  | Start sector | End sector
    ---------------------------------------------------------
        1  |  0:00.00 |  7:38.17 |         0    |    34366
        2  |  7:38.17 |  5:08.45 |     34367    |    57511
        3  | 12:46.62 |  5:21.35 |     57512    |    81621
        4  | 18:08.22 |  5:28.00 |     81622    |   106221
        5  | 23:36.22 |  5:48.20 |    106222    |   132341
        6  | 29:24.42 |  8:51.28 |    132342    |   172194
        7  | 38:15.70 |  5:16.17 |    172195    |   195911
        8  | 43:32.12 |  5:56.33 |    195912    |   222644
        9  | 49:28.45 |  7:43.52 |    222645    |   257421
       10  | 57:12.22 |  6:48.03 |    257422    |   288024
       11  | 64:00.25 |  4:39.17 |    288025    |   308966
       12  | 68:39.42 | 10:11.18 |    308967    |   354809
Track  1
     Filename C:\FLACMusic\Franz Schubert\Symphonies Nos. 3, 5, & 6 (Sir Thomas Beecham & the Royal Philharmonic Orchestra)\01 - Symphony No.3 in D, D.200 - I. Adagio maestoso - Allegro con brio.wav
     Pre-gap length  0:00:02.00
     Peak level 92.6 %
     Track quality 99.9 %
     Test CRC B0E57B70
     Copy CRC B0E57B70
     Accurately ripped (confidence 4)  [B51A3FEC]
     Copy OK
Track  2
     Filename C:\FLACMusic\Franz Schubert\Symphonies Nos. 3, 5, & 6 (Sir Thomas Beecham & the Royal Philharmonic Orchestra)\02 - Symphony No.3 in D, D.200 - II. Allegretto.wav
     Peak level 45.9 %
     Track quality 100.0 %
     Test CRC BA436307
     Copy CRC BA436307
     Accurately ripped (confidence 4)  [7221552E]
     Copy OK
Track  3
     Filename C:\FLACMusic\Franz Schubert\Symphonies Nos. 3, 5, & 6 (Sir Thomas Beecham & the Royal Philharmonic Orchestra)\03 - Symphony No.3 in D, D.200 - III. Minuet (Vivace) & Trio.wav
     Peak level 92.6 %
     Track quality 100.0 %
     Test CRC 90FC66B3
     Copy CRC 90FC66B3
     Accurately ripped (confidence 4)  [69118029]
     Copy OK
Track  4
     Filename C:\FLACMusic\Franz Schubert\Symphonies Nos. 3, 5, & 6 (Sir Thomas Beecham & the Royal Philharmonic Orchestra)\04 - Symphony No.3 in D, D.200 - IV. Presto vivace.wav
     Peak level 98.8 %
     Track quality 100.0 %
     Test CRC F3CA2058
     Copy CRC F3CA2058
     Accurately ripped (confidence 4)  [64E72390]
     Copy OK
Track  5
     Filename C:\FLACMusic\Franz Schubert\Symphonies Nos. 3, 5, & 6 (Sir Thomas Beecham & the Royal Philharmonic Orchestra)\05 - Symphony No.5 in B flat, D.485 - I. Allegro.wav
     Pre-gap length  0:00:09.26
     Peak level 95.6 %
     Track quality 100.0 %
     Test CRC B4B5039A
     Copy CRC B4B5039A
     Accurately ripped (confidence 4)  [605CBC78]
     Copy OK
Track  6
     Filename C:\FLACMusic\Franz Schubert\Symphonies Nos. 3, 5, & 6 (Sir Thomas Beecham & the Royal Philharmonic Orchestra)\06 - Symphony No.5 in B flat, D.485 - II. Andante con moto.wav
     Peak level 83.3 %
     Track quality 100.0 %
     Test CRC B9A1BF67
     Copy CRC B9A1BF67
     Accurately ripped (confidence 4)  [8EBC85A0]
     Copy OK
Track  7
     Filename C:\FLACMusic\Franz Schubert\Symphonies Nos. 3, 5, & 6 (Sir Thomas Beecham & the Royal Philharmonic Orchestra)\07 - Symphony No.5 in B flat, D.485 - III. Menuetto (Allegro molto) & Trio.wav
     Peak level 91.9 %
     Track quality 100.0 %
     Test CRC 059EAFEE
     Copy CRC 059EAFEE
     Accurately ripped (confidence 4)  [67970188]
     Copy OK
Track  8
     Filename C:\FLACMusic\Franz Schubert\Symphonies Nos. 3, 5, & 6 (Sir Thomas Beecham & the Royal Philharmonic Orchestra)\08 - Symphony No.5 in B flat, D.485 - IV. Allegro vivace.wav
     Peak level 95.1 %
     Track quality 100.0 %
     Test CRC 18741CB3
     Copy CRC 18741CB3
     Accurately ripped (confidence 4)  [0579C21A]
     Copy OK
Track  9
     Filename C:\FLACMusic\Franz Schubert\Symphonies Nos. 3, 5, & 6 (Sir Thomas Beecham & the Royal Philharmonic Orchestra)\09 - Symphony No.6 in C, D.589 - I. Adagio - Allegretto.wav
     Pre-gap length  0:00:08.97
     Peak level 95.4 %
     Track quality 100.0 %
     Test CRC 40A9123B
     Copy CRC 40A9123B
     Accurately ripped (confidence 4)  [4083D55E]
     Copy OK
Track 10
     Filename C:\FLACMusic\Franz Schubert\Symphonies Nos. 3, 5, & 6 (Sir Thomas Beecham & the Royal Philharmonic Orchestra)\10 - Symphony No.6 in C, D.589 - II. Andante.wav
     Peak level 94.4 %
     Track quality 100.0 %
     Test CRC 3CBB3171
     Copy CRC 3CBB3171
     Accurately ripped (confidence 4)  [36DCB55C]
     Copy OK
Track 11
     Filename C:\FLACMusic\Franz Schubert\Symphonies Nos. 3, 5, & 6 (Sir Thomas Beecham & the Royal Philharmonic Orchestra)\11 - Symphony No.6 in C, D.589 - III. Scherzo (Presto) & Trio.wav
     Peak level 90.3 %
     Track quality 100.0 %
     Test CRC 5A35FEE9
     Copy CRC 5A35FEE9
     Accurately ripped (confidence 4)  [48392714]
     Copy OK
Track 12
     Filename C:\FLACMusic\Franz Schubert\Symphonies Nos. 3, 5, & 6 (Sir Thomas Beecham & the Royal Philharmonic Orchestra)\12 - Symphony No.6 in C, D.589 - IV. Allegro moderato.wav
     Peak level 96.2 %
     Track quality 99.8 %
     Test CRC D1F53B72
     Copy CRC D1F53B72
     Cannot be verified as accurate (confidence 8)  [2839EC47], AccurateRip returned [F90F3638]
     Copy OK
11 track(s) accurately ripped
1 track(s) could not be verified as accurate
Some tracks could not be verified as accurate
No errors occurred
End of status report

-

CUE

REM GENRE Classical
REM DATE 1999
REM DISCID A7127A0C
REM COMMENT "ExactAudioCopy v0.99pb5"
FILE "Franz Schubert\Symphonies Nos. 3, 5, & 6 (Sir Thomas Beecham & the Royal Philharmonic Orchestra)\01 - Symphony No.3 in D, D.200 - I. Adagio maestoso - Allegro con brio.wav" WAVE
  TRACK 01 AUDIO
    INDEX 01 00:00:00
FILE "Franz Schubert\Symphonies Nos. 3, 5, & 6 (Sir Thomas Beecham & the Royal Philharmonic Orchestra)\02 - Symphony No.3 in D, D.200 - II. Allegretto.wav" WAVE
  TRACK 02 AUDIO
    INDEX 01 00:00:00
FILE "Franz Schubert\Symphonies Nos. 3, 5, & 6 (Sir Thomas Beecham & the Royal Philharmonic Orchestra)\03 - Symphony No.3 in D, D.200 - III. Minuet (Vivace) & Trio.wav" WAVE
  TRACK 03 AUDIO
    INDEX 01 00:00:00
FILE "Franz Schubert\Symphonies Nos. 3, 5, & 6 (Sir Thomas Beecham & the Royal Philharmonic Orchestra)\04 - Symphony No.3 in D, D.200 - IV. Presto vivace.wav" WAVE
  TRACK 04 AUDIO
    INDEX 01 00:00:00
  TRACK 05 AUDIO
    INDEX 00 05:18:55
FILE "Franz Schubert\Symphonies Nos. 3, 5, & 6 (Sir Thomas Beecham & the Royal Philharmonic Orchestra)\05 - Symphony No.5 in B flat, D.485 - I. Allegro.wav" WAVE
    INDEX 01 00:00:00
FILE "Franz Schubert\Symphonies Nos. 3, 5, & 6 (Sir Thomas Beecham & the Royal Philharmonic Orchestra)\06 - Symphony No.5 in B flat, D.485 - II. Andante con moto.wav" WAVE
  TRACK 06 AUDIO
    INDEX 01 00:00:00
FILE "Franz Schubert\Symphonies Nos. 3, 5, & 6 (Sir Thomas Beecham & the Royal Philharmonic Orchestra)\07 - Symphony No.5 in B flat, D.485 - III. Menuetto (Allegro molto) & Trio.wav" WAVE
  TRACK 07 AUDIO
    INDEX 01 00:00:00
FILE "Franz Schubert\Symphonies Nos. 3, 5, & 6 (Sir Thomas Beecham & the Royal Philharmonic Orchestra)\08 - Symphony No.5 in B flat, D.485 - IV. Allegro vivace.wav" WAVE
  TRACK 08 AUDIO
    INDEX 01 00:00:00
  TRACK 09 AUDIO
    INDEX 00 05:47:35
FILE "Franz Schubert\Symphonies Nos. 3, 5, & 6 (Sir Thomas Beecham & the Royal Philharmonic Orchestra)\09 - Symphony No.6 in C, D.589 - I. Adagio - Allegretto.wav" WAVE
    INDEX 01 00:00:00
FILE "Franz Schubert\Symphonies Nos. 3, 5, & 6 (Sir Thomas Beecham & the Royal Philharmonic Orchestra)\10 - Symphony No.6 in C, D.589 - II. Andante.wav" WAVE
  TRACK 10 AUDIO
    INDEX 01 00:00:00
FILE "Franz Schubert\Symphonies Nos. 3, 5, & 6 (Sir Thomas Beecham & the Royal Philharmonic Orchestra)\11 - Symphony No.6 in C, D.589 - III. Scherzo (Presto) & Trio.wav" WAVE
  TRACK 11 AUDIO
    INDEX 01 00:00:00
FILE "Franz Schubert\Symphonies Nos. 3, 5, & 6 (Sir Thomas Beecham & the Royal Philharmonic Orchestra)\12 - Symphony No.6 in C, D.589 - IV. Allegro moderato.wav" WAVE
  TRACK 12 AUDIO
    INDEX 01 00:00:00
-



Показать сообщения:    

Текущее время: 09-Дек 18:30

Часовой пояс: UTC + 3


Вы не можете начинать темы
Вы не можете отвечать на сообщения
Вы не можете редактировать свои сообщения
Вы не можете удалять свои сообщения
Вы не можете голосовать в опросах
Вы не можете прикреплять файлы к сообщениям
Вы не можете скачивать файлы