Поэзия / Poetry / Shi (Ли Чан Дон / Lee Chang Dong) [2010, Южная Корея, драма, HDRip] MVO + Original Kor


 

[Цитировать]

Поэзия / Poetry / Shi Страна: Южная Корея
Жанр: драма
Год выпуска: 2010
Продолжительность: 02:19:21
Перевод: Профессиональный (многоголосый закадровый)
Cубтитры: нет
Оригинальная аудиодорожка: корейская
Режиссер: Ли Чан Дон / Lee Chang Dong
В ролях: Юн Чжон Хи, Ли Да Вит, Ким Хи Ра, Ан Нэ Сан, Минг-Шин Парк, Ен-Тхэк Ким, Ким Чон Гу.
Описание: В маленьком городе провинции Кенгидо, где протекает река Хан, живет Миджа со своим внуком-школьником. Эксцентричная и любопытная женщина очень любит заботиться о своей внешности и носит шляпы, расписанные цветами, и яркую одежду. Случайно она попадает на курсы обучения стихосложению в местном доме культуры.
Впервые в жизни Миджа пишет стихотворение. Она ищет красоту в своем обычном окружении, на которое никогда не обращала особого внимания. Ей кажется, что теперь она наконец заметила то, что раньше просто видела, и приходит в восторг. Однако неожиданные события заставляют женщину осознать, что жизнь не так прекрасна, как ей представлялось...

Доп. информация:
Исходник - BDRip 720p из раздачи LooKMaNe на
Русская дорожка позаимствована из раздачи секретутка (Kinozal)
HDRip и синхронизация звука - Arle-kino

Качество видео: HDRip
Формат видео: AVI
Видео: 720x400 (1.80:1), 23.976 fps, XviD build 50 ~1226 kbps avg, 0.18 bit/pixel
Аудио 1: 48 kHz, MPEG Layer 3, 2 ch, ~128.00 kbps avg - Russian
Аудио 2: 48 kHz, MPEG Layer 3, 2 ch, ~128.00 kbps avg - Korean

MediaInfo

General
Complete name : D:\Public\Poetry.(2010).HDRip.Rus-Kor.avi
Format : AVI
Format/Info : Audio Video Interleave
File size : 1.46 GiB
Duration : 2h 19mn
Overall bit rate : 1 498 Kbps
Writing application : VirtualDubMod 1.5.10.2 (build 2542/release)
Writing library : VirtualDubMod build 2542/release
Video
ID : 0
Format : MPEG-4 Visual
Format profile : Advanced Simple@L5
Format settings, BVOP : 1
Format settings, QPel : No
Format settings, GMC : No warppoints
Format settings, Matrix : Default (MPEG)
Codec ID : XVID
Codec ID/Hint : XviD
Duration : 2h 19mn
Bit rate : 1 228 Kbps
Width : 720 pixels
Height : 400 pixels
Display aspect ratio : 16:9
Frame rate : 23.976 fps
Color space : YUV
Chroma subsampling : 4:2:0
Bit depth : 8 bits
Scan type : Progressive
Compression mode : Lossy
Bits/(Pixel*Frame) : 0.178
Stream size : 1.20 GiB (82%)
Writing library : XviD 1.2.1 (UTC 2008-12-04)
Audio #1
ID : 1
Format : MPEG Audio
Format version : Version 1
Format profile : Layer 3
Codec ID : 55
Codec ID/Hint : MP3
Duration : 2h 19mn
Bit rate mode : Constant
Bit rate : 128 Kbps
Channel(s) : 2 channels
Sampling rate : 48.0 KHz
Compression mode : Lossy
Stream size : 128 MiB (9%)
Alignment : Aligned on interleaves
Interleave, duration : 42 ms (1.00 video frame)
Interleave, preload duration : 504 ms
Title : Russian
Writing library : LAME3.98r
Encoding settings : -m s -V 4 -q 2 -lowpass 17 -b 128
Audio #2
ID : 2
Format : MPEG Audio
Format version : Version 1
Format profile : Layer 3
Codec ID : 55
Codec ID/Hint : MP3
Duration : 2h 19mn
Bit rate mode : Constant
Bit rate : 128 Kbps
Channel(s) : 2 channels
Sampling rate : 48.0 KHz
Compression mode : Lossy
Stream size : 128 MiB (9%)
Alignment : Aligned on interleaves
Interleave, duration : 42 ms (1.00 video frame)
Interleave, preload duration : 504 ms
Title : Korean
Writing library : LAME3.98r
Encoding settings : -m s -V 4 -q 2 -lowpass 17 -b 128

Скриншот c названием фильма

Скриншоты




Показать сообщения:    

Текущее время: 08-Дек 21:09

Часовой пояс: UTC + 3


Вы не можете начинать темы
Вы не можете отвечать на сообщения
Вы не можете редактировать свои сообщения
Вы не можете удалять свои сообщения
Вы не можете голосовать в опросах
Вы не можете прикреплять файлы к сообщениям
Вы не можете скачивать файлы