Игра / Play (Рубен Эстлунд / Ruben Ostlund) [2011, Швеция, Франция, драма, DVDRip] MVO


Статистика раздачи [Обновить пиров]
Размер:  1.46 GB   |    Зарегистрирован:  10 месяцев 25 дней   |    Скачан:  1 раз

Полного источника не было: 6 месяцев 14 дней

 
   
 
 
 

[Цитировать]

Игра / Play
Год выпуска: 2011
Страна: Швеция, Франция
Жанр: драма
Продолжительность: 01:57:58.959 (176974 frames)
Перевод: Профессиональный (многоголосый, закадровый)
Оригинальная аудиодорожка: нет
Русские субтитры: нет
Режиссер: Рубен Эстлунд / Ruben Ostlund
В ролях: Кевин Ваз, Йохан Йонасон, Анас Абдирахман, Себастиан Бликерт, Янник Диаките, Себастиан Хегмар, Абдиазиз Хилоуле, Нана Маню, Тобиас Акессон, Адам Нюгрен, Мартин МакФол, Пегги Йоханссон
Описание: Наблюдение, основанное на реальных случаях травли подростками друг друга. В центре Гетеборга группа мальчишек от 12 до 14 лет с 2006 по 2008 год совершила около 40 ограблений других детей. Для этого ворами применялась тщательно продуманная схема под названием «трюк с братом», основанная скорее на продвинутой ролевой игре и бандитских понятиях, нежели на физическом насилии.
Качество: DVDRip
Формат: AVI
Видео кодек: XviD
Аудио кодек: АС3
Видео: 720x400 (1.80:1), 25 fps, XviD build 73 ~1566 kbps avg, 0.22 bit/pixel
Аудио: 48 kHz, AC3 Dolby Digital, 2/0 (L,R) ch, ~192.00 kbps avg

Медиаинфо

F:\004 Мои раздачи\Игра 1,46\igra_1,46_[torrents.ru]_by_bm11.avi
General
Complete name : F:\004 Мои раздачи\Игра 1,46\igra_1,46_[torrents.ru]_by_bm11.avi
Format : AVI
Format/Info : Audio Video Interleave
File size : 1.46 GiB
Duration : 1h 57mn
Overall bit rate : 1 768 Kbps
Director : bm11
Writing application : VirtualDubMod 1.5.10.3 | www.virtualdub-fr.org || (build 2550/release)
Video
Format : MPEG-4 Visual
Format profile : Streaming Video@L1
Format settings, BVOP : Yes
Format settings, QPel : No
Format settings, GMC : No warppoints
Format settings, Matrix : Custom
Codec ID : XVID
Codec ID/Hint : XviD
Duration : 1h 57mn
Bit rate : 1 567 Kbps
Width : 720 pixels
Height : 400 pixels
Display aspect ratio : 16/9
Frame rate : 25.000 fps
Resolution : 24 bits
Colorimetry : 4:2:0
Scan type : Progressive
Bits/(Pixel*Frame) : 0.218
Stream size : 1.29 GiB (89%)
Writing library : XviD 73
Audio
Format : AC-3
Format/Info : Audio Coding 3
Codec ID : 2000
Duration : 1h 57mn
Bit rate mode : Constant
Bit rate : 192 Kbps
Channel(s) : 2 channels
Channel positions : L R
Sampling rate : 48.0 KHz
Stream size : 162 MiB (11%)
Alignment : Split accross interleaves
Interleave, duration : 40 ms (1.00 video frame)
Interleave, preload duration : 500 ms
[teatrix.ru].t12697.torrent 
Торрент: Зарегистрирован [ 2016-01-10 17:10 ] · 42369BD4B47A88480DB150933AD5BD3F0A81A00D

Скачать .torrent

Скачать

15 KB

Статус: проверено
Скачан: 1 раз
Размер: 1.46 GB
terms.php



Быстрый ответ

Имя:

      
Для отправки сообщений необходимо включить JavaScript
Показать сообщения:    

Текущее время: 05-Дек 01:19

Часовой пояс: UTC + 3


Вы можете начинать темы
Вы можете отвечать на сообщения
Вы не можете редактировать свои сообщения
Вы не можете удалять свои сообщения
Вы не можете голосовать в опросах
Вы не можете прикреплять файлы к сообщениям
Вы можете скачивать файлы