(Classical) Franz Schubert — Symphonies № 8 & 9 (D 759 & 944) (Leonard Bernstein) — 2000, FLAC (tracks+.cue) lossless


 

[Цитировать]

Symphonies № 8 & 9 (D 759 & 944)- Жанр: Classical
Страна-производитель диска: США
Издатель (лейбл): Sony Classical
Номер по каталогу: SNYC 61842
Год издания диска: January, 11, 2000
Годы записи фонограмм: 27.03.1963 (1) & 17.01.1967-19.01.1967 (2), Philharmonic Hall (now Avery Fisher Hall), Lincoln Center, New York
Композитор: Franz Peter Schubert
Исполнительский коллектив: New York Philharmonic Orchestra under Leonard Bernstein
Аудио кодек: flac
Тип рипа: tracks+.cue
Битрейт аудио: lossless
Продолжительность: 01h14'50"
Источник: web
Наличие сканов в содержимом раздачи: нет-Треклист:
(01-02) Symphony № 8 h-moll D 759 «Unfinished» [25'58"]
(03-06) Symphony № 9 C-Dur D 944 «The Great» [48'52"]-

EAC log

Exact Audio Copy V1.0 beta 1 from 15. November 2010
EAC extraction logfile from 1. February 2011, 11:47
Leonard Bernstein & New York Philharmonic / Schubert: Symphonies Nos. 8 "Unfinished" & 9 "The Great"
Used drive  : SONY    DVD RW DRX-S70U   Adapter: 4  ID: 0
Read mode               : Secure
Utilize accurate stream : Yes
Defeat audio cache      : Yes
Make use of C2 pointers : No
Read offset correction                      : 6
Overread into Lead-In and Lead-Out          : No
Fill up missing offset samples with silence : Yes
Delete leading and trailing silent blocks   : No
Null samples used in CRC calculations       : Yes
Used interface                              : Native Win32 interface for Win NT & 2000
Gap handling                                : Appended to previous track
Used output format              : User Defined Encoder
Selected bitrate                : 128 kBit/s
Quality                         : High
Add ID3 tag                     : No
Command line compressor         : C:\Program Files\Exact Audio Copy\Flac\flac.exe
Additional command line options : -V -8 -T "artist=%a" -T "title=%t" -T "album=%g" -T "date=%y" -T "tracknumber=%n" -T "genre=%m" %s
TOC of the extracted CD
     Track |   Start  |  Length  | Start sector | End sector
    ---------------------------------------------------------
        1  |  0:00.00 | 13:51.62 |         0    |    62386
        2  | 13:51.62 | 12:06.35 |     62387    |   116871
        3  | 25:58.22 | 13:26.50 |    116872    |   177371
        4  | 39:24.72 | 15:12.40 |    177372    |   245811
        5  | 54:37.37 | 10:05.43 |    245812    |   291229
        6  | 64:43.05 | 10:07.12 |    291230    |   336766
Track  1
     Filename C:\ripping\Leonard Bernstein & New York Philharmonic - Schubert- Symphonies Nos. 8 ''Unfinished'' & 9 ''The Great'' (1999) - FLAC\CD2\01 - Leonard Bernstein & New York Philharmonic - Symphony No. 8 in B minor (''Unfinished''), D. 759- 1. Alleg
     Pre-gap length  0:00:02.00
     Peak level 99.1 %
     Extraction speed 3.5 X
     Track quality 99.9 %
     Test CRC 337C1DAE
     Copy CRC 337C1DAE
     Accurately ripped (confidence 4)  [C422FBFE]
     Copy OK
Track  2
     Filename C:\ripping\Leonard Bernstein & New York Philharmonic - Schubert- Symphonies Nos. 8 ''Unfinished'' & 9 ''The Great'' (1999) - FLAC\CD2\02 - Leonard Bernstein & New York Philharmonic - Symphony No. 8 in B minor (''Unfinished''), D. 759- 2. Andan
     Peak level 93.7 %
     Extraction speed 4.5 X
     Track quality 100.0 %
     Test CRC 592B2CC6
     Copy CRC 592B2CC6
     Accurately ripped (confidence 4)  [DBBABD59]
     Copy OK
Track  3
     Filename C:\ripping\Leonard Bernstein & New York Philharmonic - Schubert- Symphonies Nos. 8 ''Unfinished'' & 9 ''The Great'' (1999) - FLAC\CD2\03 - Leonard Bernstein & New York Philharmonic - Symphony No. 9 in C major (''The Great''), D. 944- 1. Andant
     Pre-gap length  0:00:09.45
     Peak level 96.5 %
     Extraction speed 5.2 X
     Track quality 100.0 %
     Test CRC 34C71730
     Copy CRC 34C71730
     Accurately ripped (confidence 4)  [62F09DEF]
     Copy OK
Track  4
     Filename C:\ripping\Leonard Bernstein & New York Philharmonic - Schubert- Symphonies Nos. 8 ''Unfinished'' & 9 ''The Great'' (1999) - FLAC\CD2\04 - Leonard Bernstein & New York Philharmonic - Symphony No. 9 in C major (''The Great''), D. 944- 2. Andant
     Peak level 96.5 %
     Extraction speed 5.5 X
     Track quality 99.9 %
     Test CRC EF8CD06C
     Copy CRC EF8CD06C
     Accurately ripped (confidence 4)  [170E0290]
     Copy OK
Track  5
     Filename C:\ripping\Leonard Bernstein & New York Philharmonic - Schubert- Symphonies Nos. 8 ''Unfinished'' & 9 ''The Great'' (1999) - FLAC\CD2\05 - Leonard Bernstein & New York Philharmonic - Symphony No. 9 in C major (''The Great''), D. 944- 3. Scherz
     Peak level 98.6 %
     Extraction speed 6.3 X
     Track quality 100.0 %
     Test CRC 96492D29
     Copy CRC 96492D29
     Accurately ripped (confidence 4)  [28A0ED8C]
     Copy OK
Track  6
     Filename C:\ripping\Leonard Bernstein & New York Philharmonic - Schubert- Symphonies Nos. 8 ''Unfinished'' & 9 ''The Great'' (1999) - FLAC\CD2\06 - Leonard Bernstein & New York Philharmonic - Symphony No. 9 in C major (''The Great''), D. 944- 4. Finale
     Peak level 98.7 %
     Extraction speed 6.6 X
     Track quality 100.0 %
     Test CRC 32DDB01B
     Copy CRC 32DDB01B
     Accurately ripped (confidence 4)  [E79A9E95]
     Copy OK
All tracks accurately ripped
No errors occurred
End of status report
==== Log checksum 93A3D5A71686D200B01A397E071FD3542874E05FA055F86B6D0A6C36AE702437 ====

-

CUE

REM GENRE Classical
REM DATE 1999
REM DISCID 5A118A06
REM COMMENT "ExactAudioCopy v1.0b1"
PERFORMER "Leonard Bernstein & New York Philharmonic"
TITLE "Schubert: Symphonies Nos. 8 'Unfinished' & 9 'The Great'"
FILE "Leonard Bernstein & New York Philharmonic - Schubert- Symphonies Nos. 8 ''Unfinished'' & 9 ''The Great'' (1999) - FLAC\CD2\01 - Leonard Bernstein & New York Philharmonic - Symphony No. 8 in B minor (''Unfinished''), D. 759- 1. Allegro moderato.wav" W
  TRACK 01 AUDIO
    TITLE "Symphony No. 8 in B minor ('Unfinished'), D. 759: 1. Allegro moderato"
    PERFORMER "Leonard Bernstein & New York Philharmonic"
    ISRC H2KM16300350
    INDEX 01 00:00:00
FILE "Leonard Bernstein & New York Philharmonic - Schubert- Symphonies Nos. 8 ''Unfinished'' & 9 ''The Great'' (1999) - FLAC\CD2\02 - Leonard Bernstein & New York Philharmonic - Symphony No. 8 in B minor (''Unfinished''), D. 759- 2. Andante con moto.wav" W
  TRACK 02 AUDIO
    TITLE "Symphony No. 8 in B minor ('Unfinished'), D. 759: 2. Andante con moto"
    PERFORMER "Leonard Bernstein & New York Philharmonic"
    ISRC H2KM16300351
    INDEX 01 00:00:00
  TRACK 03 AUDIO
    TITLE "Symphony No. 9 in C major ('The Great'), D. 944: 1. Andante; Allegro ma non t..."
    PERFORMER "Leonard Bernstein & New York Philharmonic"
    ISRC H2KM16701020
    INDEX 00 11:56:65
FILE "Leonard Bernstein & New York Philharmonic - Schubert- Symphonies Nos. 8 ''Unfinished'' & 9 ''The Great'' (1999) - FLAC\CD2\03 - Leonard Bernstein & New York Philharmonic - Symphony No. 9 in C major (''The Great''), D. 944- 1. Andante; Allegro ma non
    INDEX 01 00:00:00
FILE "Leonard Bernstein & New York Philharmonic - Schubert- Symphonies Nos. 8 ''Unfinished'' & 9 ''The Great'' (1999) - FLAC\CD2\04 - Leonard Bernstein & New York Philharmonic - Symphony No. 9 in C major (''The Great''), D. 944- 2. Andante con moto.wav" WA
  TRACK 04 AUDIO
    TITLE "Symphony No. 9 in C major ('The Great'), D. 944: 2. Andante con moto"
    PERFORMER "Leonard Bernstein & New York Philharmonic"
    ISRC H2KM16701021
    INDEX 01 00:00:00
FILE "Leonard Bernstein & New York Philharmonic - Schubert- Symphonies Nos. 8 ''Unfinished'' & 9 ''The Great'' (1999) - FLAC\CD2\05 - Leonard Bernstein & New York Philharmonic - Symphony No. 9 in C major (''The Great''), D. 944- 3. Scherzo- Allegro vivace.
  TRACK 05 AUDIO
    TITLE "Symphony No. 9 in C major ('The Great'), D. 944: 3. Scherzo: Allegro vivace"
    PERFORMER "Leonard Bernstein & New York Philharmonic"
    ISRC H2KM16701022
    INDEX 01 00:00:00
FILE "Leonard Bernstein & New York Philharmonic - Schubert- Symphonies Nos. 8 ''Unfinished'' & 9 ''The Great'' (1999) - FLAC\CD2\06 - Leonard Bernstein & New York Philharmonic - Symphony No. 9 in C major (''The Great''), D. 944- 4. Finale- Allegro vivace.w
  TRACK 06 AUDIO
    TITLE "Symphony No. 9 in C major ('The Great'), D. 944: 4. Finale: Allegro vivace"
    PERFORMER "Leonard Bernstein & New York Philharmonic"
    ISRC H2KM16701023
    INDEX 01 00:00:00
-



Показать сообщения:    

Текущее время: 11-Дек 07:16

Часовой пояс: UTC + 3


Вы не можете начинать темы
Вы не можете отвечать на сообщения
Вы не можете редактировать свои сообщения
Вы не можете удалять свои сообщения
Вы не можете голосовать в опросах
Вы не можете прикреплять файлы к сообщениям
Вы не можете скачивать файлы