(Classical / Symphony) Gustav Mahler - Symphonien Nrn. 1-9 • Symphonie Nr. 10: Adagio / Густав Малер - Симфонии №№ 1-9 • Симфония № 10: Adagio (Concertgebouworkest Amsterdam, Bernard Haitink, 1962–1971) - 1994 [10 CD], FLAC (tracks+.cue) lossless


 

[Цитировать]

Gustav Mahler | Густав Малер
(1860–1911)



Die Symphonien | The Symphonies | Симфонии


Elly AmelingIleana CotrubasHeather HarperHanneke van Bork
Aafje HeynisMaureen ForresterBirgit FinniläMarianne Dieleman
William CochranHermann PreyHans Sotin
Kinderkoor St. Willibrord & St. Pius XToonkunstkoorDe Stem des Volks
Collegium Musicum AmstelodamenseGroot Omroepkoor
Concertgebouworkest Amsterdam
Bernard Haitink conductor


Жанр: Classical / Symphony
Даты и место записи: Amsterdam, 1962–1971
Формат записи: ADD, Stereo
Год издания диска: 1994
Издатель (лейбл): Philips
Номер по каталогу: 442 050-2
Аудиокодек: FLAC
Тип рипа: tracks+.cue
Битрейт аудио: lossless
Продолжительность: 11:31:45
Наличие сканов в содержимом раздачи: да
Источник: LzTr
Релизёр: Yeroun


-
Tracklist / ТреклистCD 1: Symphonie Nr. 1 • Symphonie Nr. 2 (1)
Symphonie Nr. 1 D-dur - 52:19
I. Langsam. Schleppend. Wie ein Naturlaut. — Sehr gemächlich - 13:27
  • II. Kräftig bewegt, doch nicht zu schnell. — Recht gemächlich - 7:45
  • III. Feierlich und gemessen, ohne zu schleppen - 10:56
  • IV. Stürmisch bewegt - 20:11
    Recorded: Amsterdam, 9/1962Symphonie Nr. 2 c-moll - 1:22:15
    I. Allegro maestoso - 20:24CD 2: Symphonie Nr. 2 (2-5)
    Symphonie Nr. 2 c-moll (cont.)
    II. Andante moderato - 10:59
  • III. Scherzo: In ruhig fließender Bewegung - 11:22
  • IV. Urlicht: Sehr feierlich, aber schlicht - 5:19
  • V. Im Tempo des Scherzos. Wild herausfahrend - 9:29
  • Maestoso - 7:39
  • Sehr langsam und gedehnt - 2:18
  • Langsam. Misterioso - 6:22
  • Etwas bewegter - 8:23
    Elly Ameling (soprano), Aafje Heynis (contralto)
    Groot Omroepkoor (Carel Laôut, chorus master)
    Recorded: Amsterdam, 5/1968
    CD 3: Symphonie Nr. 3 (1-5)
    Symphonie Nr. 3 d-moll - 1:34:33
    I. Kräftig. Entschieden - 32:18
  • II. Tempo di Menuetto. Sehr mäßig - 10:20
  • III. Comodo. Scherzando. Ohne Hast - 16:53
  • IV. Sehr langsam. Misterioso - 8:43
  • V. Lustig im Tempo und Keck im Ausdruck - 4:07CD 4: Symphonie Nr. 3 (6) • Symphonie Nr. 4
    Symphonie Nr. 3 d-moll (cont.)
    VI. Langsam. Ruhevoll. Empfunden - 22:12
    Maureen Forrester (contralto)
    Jongenskoor St. Willibrord, Amsterdam
    De vrouwen van het Groot Omroepkoor
    Recorded: Amsterdam, 5/1966
    Symphonie Nr. 4 G-dur - 53:34
    I. Bedächtig. Nicht eilen. — Recht gemächlich - 16:31
  • II. In gemächlicher Bewegung. Ohne Hast - 8:40
  • III. Ruhevoll - 19:36
  • IV. Sehr behaglich - 8:47
    Elly Ameling (soprano)
    Recorded: Amsterdam, 2/1967
    CD 5: Symphonie Nr. 5
    Symphonie Nr. 5 cis-moll - 1:11:00
    I. Trauermarsch: In gemessenem Schritt. Streng. Wie ein Kondukt - 12:22
  • II. Stürmisch bewegt. Mit größter Vehemenz - 14:09
  • III. Scherzo: Kräftig, nicht zu schnell - 18:03
  • IV. Adagietto: Sehr langsam - 10:38
  • V. Rondo-Finale: Allegro. — Allegro giocoso. Frisch - 15:48
    Recorded: Amsterdam, 12/1970CD 6: Symphonie Nr. 10 (Adadio) • Symphonie Nr. 6 (1-3)
    Symphonie Nr. 10 Fis-dur
    Adagio: Andante. — Adagio - 24:38
    Recorded: Amsterdam, 9/1971Symphonie Nr. 6 a-moll - 1:20:57
    I. Allegro energico, ma non troppo - 22:08
  • II. Scherzo: Wuchtig - 13:18
  • III. Andante moderato - 15:46CD 7: Symphonie Nr. 6 (4) • Symphonie Nr. 9 (1, 2)
    Symphonie Nr. 6 a-moll (cont.)
    IV. Finale: Allegro moderato. — Allegro energico - 29:45
    Recorded: Amsterdam, 1/1969Symphonie Nr. 9 D-dur - 1:20:47
    I. Andante comodo. — Mit Wut. Allegro risoluto - 27:04
  • II. Im Tempo eines gemächlichen Ländlers. Etwas täppisch und sehr derb - 15:58CD 8: Symphonie Nr. 9 (3, 4)
    Symphonie Nr. 9 D-dur (cont.)
    III. Rondo-Burleske: Allegro assai. Sehr trotzig - 13:03
  • IV. Adagio: Sehr langsam und noch zurückhaltend - 24:42
    Recorded: Amsterdam, 6/1969CD 9: Symphonie Nr. 7
    Symphonie Nr. 7 e-moll - 1:16:02
    I. Langsam (Adagio). — Allegro risoluto, ma non troppo - 20:52
  • II. Nachtmusik I: Allegro moderato - 14:40
  • III. Scherzo: Schattenhaft. — Fließend, aber nicht schnell - 9:50
  • IV. Nachtmusik II: Andante amoroso - 12:46
  • V. Rondo-Finale: Allegro ordinario. — Allegro moderato, ma energico - 17:55
    Recorded: Amsterdam, 12/1969CD 10: Symphonie Nr. 8
    Symphonie Nr. 8 Es-dur - 1:15:40
    I. Hymnus «Veni, Creator Spiritus»: «Veni, Creator Spiritus!» - 1:24
  • «Imple superna gratia» - 3:01
  • «Infirma nostri corporis» - 3:37
  • Sehr fließend - 2:53
  • «Accende lumen sensibus» - 5:41
  • «Qui Paraclitus diceris» - 2:29
  • «Gloria sit Patri Domino» - 3:23
  • II. Slußszene aus Goethes «Faust»: Poco adagio - 5:05
  • Più mosso (Allegro moderato) - 3:00
  • «Waldung, sie schwankt heran» - 3:23
  • «Ewiger Wonnebrand» - 1:23
  • «Wie Felsenabgrund mir zu Füßen» - 4:35
  • «Gerettet sei das edle Glied» - 1:04
  • «Jene Rosen» - 2:14
  • «Uns bleibt ein Erdenrest» - 1:52
  • «Ich spür' soeben» - 5:45
  • «Dir, der Unberührbaren» - 3:34
  • «Bei der Liebe» - 6:00
  • «Er überwächst uns schon» - 4:25
  • «Blicket auf zu Retterblick» - 5:45
  • «Alles vergängliche ist nur ein Gleichnis» - 5:07
    Ileana Cotrubas — soprano I / Magna peccatrix
    Heather Harper — soprano II / Una poenitentium
    Hanneke van Bork (soprano) — Mater Gloriosa
    Birgit Finnilä — contralto I / Mulier Samaritana
    Marianne Dieleman — contralto II / Maria Aegyptiaca
    William Cochran — tenor / Doctor Marianus
    Hermann Prey — baritone / Pater ecstaticus
    Hans Sotin — bass / Pater profundus
    Kinderkoor St. Willibrord & St. Pius X, Amsterdam
    Toonkunstkoor, Amsterdam
    De Stem des Volks, Amsterdam
    Collegium Musicum Amstelodamense
    Frans Moonen, general chorus master
    Recorded: Amsterdam, 9/1971

    -

    EAC logs / Отчёты EACCD 1: Symphonie Nr. 1 • Symphonie Nr. 2 (1)

    Exact Audio Copy V1.0 beta 3 from 29. August 2011
    EAC extraction logfile from 1. September 2013, 16:42
    Mahler / The Symphonies
    Used drive : TSSTcorpCDDVDW SH-216BB Adapter: 0 ID: 0
    Read mode : SecureUtilize accurate stream : YesDefeat audio cache : YesMake use of C2 pointers : No
    Read offset correction : 6Overread into Lead-In and Lead-Out : NoFill up missing offset samples with silence : YesDelete leading and trailing silent blocks : NoNull samples used in CRC calculations : YesUsed interface : Native Win32 interface for Win NT & 2000Gap handling : Appended to previous track
    Used output format : User Defined EncoderSelected bitrate : 1024 kBit/sQuality : HighAdd ID3 tag : NoCommand line compressor : C:\Program Files\Exact Audio Copy\Flac\flac.exeAdditional command line options : -6 -V -T "ARTIST=%artist%" -T "TITLE=%title%" -T "ALBUM=%albumtitle%" -T "DATE=%year%" -T "PERFORMER=%albuminterpret%" -T "TRACKNUMBER=%tracknr%" -T "TOTALTRACKS=%numtracks%" -T "GENRE=%genre%" -T "COMPOSER=%composer%" -T "ALBUMARTIST=%albumartist%" -T "ALBUM ARTIST=%albumartist%" -T "COMMENT=EAC Secure Mode, Test & Copy, AccurateRip, FLAC -6" %source%
    TOC of the extracted CD
    Track | Start | Length | Start sector | End sector --------------------------------------------------------- 1 | 0:00.33 | 13:27.00 | 33 | 60557 2 | 13:27.33 | 7:45.00 | 60558 | 95432 3 | 21:12.33 | 10:56.00 | 95433 | 144632 4 | 32:08.33 | 20:11.00 | 144633 | 235457 5 | 52:19.33 | 20:24.00 | 235458 | 327257
    Track 1
    Filename D:\EAC extraction\01 - Symphony No. 1 - I. Langsam. Schleppend.wav
    Pre-gap length 0:00:02.33
    Peak level 93.7 % Extraction speed 2.3 X Track quality 100.0 % Test CRC F156D244 Copy CRC F156D244 Accurately ripped (confidence 8) [C53C682F] (AR v2) Copy OK
    Track 2
    Filename D:\EAC extraction\02 - Symphony No. 1 - II. Kraeftig bewegt.wav
    Pre-gap length 0:00:04.00
    Peak level 81.3 % Extraction speed 2.2 X Track quality 100.0 % Test CRC B229CB12 Copy CRC B229CB12 Accurately ripped (confidence 8) [A60833E2] (AR v2) Copy OK
    Track 3
    Filename D:\EAC extraction\03 - Symphony No. 1 - III. Feierlich und gemessen, ohne zu schleppen.wav
    Peak level 55.0 % Extraction speed 2.1 X Track quality 99.9 % Test CRC 32FD47F2 Copy CRC 32FD47F2 Accurately ripped (confidence 7) [30AE8EEC] (AR v2) Copy OK
    Track 4
    Filename D:\EAC extraction\04 - Symphony No. 1 - IV. Stoermisch bewegt.wav
    Pre-gap length 0:00:01.00
    Peak level 91.9 % Extraction speed 2.3 X Track quality 100.0 % Test CRC 703486BC Copy CRC 703486BC Accurately ripped (confidence 8) [19EFF5C6] (AR v2) Copy OK
    Track 5
    Filename D:\EAC extraction\05 - Symphony No. 2 - I. Allegro maestoso.wav
    Pre-gap length 0:00:10.00
    Peak level 98.5 % Extraction speed 2.3 X Track quality 100.0 % Test CRC 23105656 Copy CRC 23105656 Accurately ripped (confidence 9) [3611D059] (AR v2) Copy OK
    All tracks accurately ripped
    No errors occurred
    End of status report
    ==== Log checksum 9AC025E1161A8F407C47EC337A1C43DDF3A8A677A02A30035F4546D04AB3880D ====

    CD 2: Symphonie Nr. 2 (2-5)

    Exact Audio Copy V1.0 beta 3 from 29. August 2011
    EAC extraction logfile from 1. September 2013, 19:07
    Mahler / The Symphonies
    Used drive : TSSTcorpCDDVDW SH-216BB Adapter: 0 ID: 0
    Read mode : SecureUtilize accurate stream : YesDefeat audio cache : YesMake use of C2 pointers : No
    Read offset correction : 6Overread into Lead-In and Lead-Out : NoFill up missing offset samples with silence : YesDelete leading and trailing silent blocks : NoNull samples used in CRC calculations : YesUsed interface : Native Win32 interface for Win NT & 2000Gap handling : Appended to previous track
    Used output format : User Defined EncoderSelected bitrate : 1024 kBit/sQuality : HighAdd ID3 tag : NoCommand line compressor : C:\Program Files\Exact Audio Copy\Flac\flac.exeAdditional command line options : -6 -V -T "ARTIST=%artist%" -T "TITLE=%title%" -T "ALBUM=%albumtitle%" -T "DATE=%year%" -T "PERFORMER=%albuminterpret%" -T "TRACKNUMBER=%tracknr%" -T "TOTALTRACKS=%numtracks%" -T "GENRE=%genre%" -T "COMPOSER=%composer%" -T "ALBUMARTIST=%albumartist%" -T "ALBUM ARTIST=%albumartist%" -T "COMMENT=EAC Secure Mode, Test & Copy, AccurateRip, FLAC -6" %source%
    TOC of the extracted CD
    Track | Start | Length | Start sector | End sector --------------------------------------------------------- 1 | 0:00.33 | 10:59.00 | 33 | 49457 2 | 10:59.33 | 11:22.25 | 49458 | 100632 3 | 22:21.58 | 5:19.12 | 100633 | 124569 4 | 27:40.70 | 9:28.38 | 124570 | 167207 5 | 37:09.33 | 7:39.00 | 167208 | 201632 6 | 44:48.33 | 2:18.00 | 201633 | 211982 7 | 47:06.33 | 6:22.25 | 211983 | 240657 8 | 53:28.58 | 8:22.50 | 240658 | 278357
    Track 1
    Filename D:\EAC extraction\01 - Symphony No. 2 - II. Andante moderato. Sehr gemaechlich.wav
    Pre-gap length 0:00:02.33
    Peak level 54.6 % Extraction speed 2.1 X Track quality 99.9 % Test CRC 30384E02 Copy CRC 30384E02 Accurately ripped (confidence 11) [0E4857D3] (AR v2) Copy OK
    Track 2
    Filename D:\EAC extraction\02 - Symphony No. 2 - III. In ruhig fliessender Bewegung.wav
    Pre-gap length 0:00:03.00
    Peak level 94.3 % Extraction speed 2.2 X Track quality 100.0 % Test CRC 6883F440 Copy CRC 6883F440 Accurately ripped (confidence 11) [3DC42E98] (AR v2) Copy OK
    Track 3
    Filename D:\EAC extraction\03 - Symphony No. 2 - IV. Urlicht. Sehr feierlich aber schlicht.wav
    Peak level 25.2 % Extraction speed 2.1 X Track quality 100.0 % Test CRC 2D465A4C Copy CRC 2D465A4C Accurately ripped (confidence 11) [06A1D0D6] (AR v2) Copy OK
    Track 4
    Filename D:\EAC extraction\04 - Symphony No. 2 - V. Im Tempo des Scherzos. Wild herausfahrend.wav
    Peak level 91.0 % Extraction speed 2.2 X Track quality 100.0 % Test CRC AE17B35D Copy CRC AE17B35D Accurately ripped (confidence 11) [C06557D0] (AR v2) Copy OK
    Track 5
    Filename D:\EAC extraction\05 - Symphony No. 2 - V. Maestoso.wav
    Peak level 100.0 % Extraction speed 2.2 X Track quality 100.0 % Test CRC D3D058DF Copy CRC D3D058DF Accurately ripped (confidence 11) [D2D189CF] (AR v2) Copy OK
    Track 6
    Filename D:\EAC extraction\06 - Symphony No. 2 - V. Sehr langsam und gedehnt.wav
    Peak level 7.5 % Extraction speed 1.8 X Track quality 100.0 % Test CRC 61A4F383 Copy CRC 61A4F383 Accurately ripped (confidence 11) [3D0BBA23] (AR v2) Copy OK
    Track 7
    Filename D:\EAC extraction\07 - Symphony No. 2 - V. Langsam. Misterioso.wav
    Pre-gap length 0:00:01.00
    Peak level 27.5 % Extraction speed 2.1 X Track quality 100.0 % Test CRC 9438C02F Copy CRC 9438C02F Accurately ripped (confidence 11) [AC6C65F4] (AR v2) Copy OK
    Track 8
    Filename D:\EAC extraction\08 - Symphony No. 2 - V. Etwas bewegter.wav
    Peak level 98.6 % Extraction speed 2.0 X Track quality 99.9 % Test CRC 758EBF31 Copy CRC 758EBF31 Accurately ripped (confidence 11) [EC786752] (AR v2) Copy OK
    All tracks accurately ripped
    No errors occurred
    End of status report
    ==== Log checksum B29DF82527F5D39E1D3D003E60D2B371AEE86AC0A6DEF260B1D02B36724A0F0A ====

    CD 3: Symphonie Nr. 3 (1-5)

    Exact Audio Copy V1.0 beta 3 from 29. August 2011
    EAC extraction logfile from 1. September 2013, 22:11
    Mahler / The Symphonies
    Used drive : TSSTcorpCDDVDW SH-216BB Adapter: 0 ID: 0
    Read mode : SecureUtilize accurate stream : YesDefeat audio cache : YesMake use of C2 pointers : No
    Read offset correction : 6Overread into Lead-In and Lead-Out : NoFill up missing offset samples with silence : YesDelete leading and trailing silent blocks : NoNull samples used in CRC calculations : YesUsed interface : Native Win32 interface for Win NT & 2000Gap handling : Appended to previous track
    Used output format : User Defined EncoderSelected bitrate : 1024 kBit/sQuality : HighAdd ID3 tag : NoCommand line compressor : C:\Program Files\Exact Audio Copy\Flac\flac.exeAdditional command line options : -6 -V -T "ARTIST=%artist%" -T "TITLE=%title%" -T "ALBUM=%albumtitle%" -T "DATE=%year%" -T "PERFORMER=%albuminterpret%" -T "TRACKNUMBER=%tracknr%" -T "TOTALTRACKS=%numtracks%" -T "GENRE=%genre%" -T "COMPOSER=%composer%" -T "ALBUMARTIST=%albumartist%" -T "ALBUM ARTIST=%albumartist%" -T "COMMENT=EAC Secure Mode, Test & Copy, AccurateRip, FLAC -6" %source%
    TOC of the extracted CD
    Track | Start | Length | Start sector | End sector --------------------------------------------------------- 1 | 0:00.32 | 32:18.00 | 32 | 145381 2 | 32:18.32 | 10:20.00 | 145382 | 191881 3 | 42:38.32 | 16:53.00 | 191882 | 267856 4 | 59:31.32 | 8:43.00 | 267857 | 307081 5 | 68:14.32 | 4:07.00 | 307082 | 325606
    Track 1
    Filename D:\EAC extraction\01 - Symphony No. 3 - I. Kraeftig. Entschieden.wav
    Pre-gap length 0:00:02.32
    Peak level 95.2 % Extraction speed 2.3 X Track quality 100.0 % Test CRC 86A91AC9 Copy CRC 86A91AC9 Accurately ripped (confidence 11) [D7EDF9FB] (AR v2) Copy OK
    Track 2
    Filename D:\EAC extraction\02 - Symphony No. 3 - II. Tempo di minuetto. Sehr maessig.wav
    Pre-gap length 0:00:07.00
    Peak level 35.7 % Extraction speed 2.2 X Track quality 100.0 % Test CRC 51A1C20B Copy CRC 51A1C20B Accurately ripped (confidence 11) [0A71AD78] (AR v2) Copy OK
    Track 3
    Filename D:\EAC extraction\03 - Symphony No. 3 - III. Comodo. Scherzando. Ohne Hast.wav
    Pre-gap length 0:00:03.00
    Peak level 74.7 % Extraction speed 2.3 X Track quality 100.0 % Test CRC DEDB5883 Copy CRC DEDB5883 Accurately ripped (confidence 11) [60B9BD50] (AR v2) Copy OK
    Track 4
    Filename D:\EAC extraction\04 - Symphony No. 3 - IV. Sehr langsam. Misterioso. Durchaus ppp.wav
    Pre-gap length 0:00:04.00
    Peak level 22.2 % Extraction speed 2.2 X Track quality 100.0 % Test CRC 86A4635A Copy CRC 86A4635A Accurately ripped (confidence 11) [FFAD8BB3] (AR v2) Copy OK
    Track 5
    Filename D:\EAC extraction\05 - Symphony No. 3 - V. Lustig im Tempo und keck im Ausdruck.wav
    Peak level 55.7 % Extraction speed 1.8 X Track quality 99.9 % Test CRC 9DF96050 Copy CRC 9DF96050 Accurately ripped (confidence 11) [60D91D89] (AR v2) Copy OK
    All tracks accurately ripped
    No errors occurred
    End of status report
    ==== Log checksum 616900EE4BFB45D113AFB8195360931BAF17DAC31ED4522C891C70715E1BFFFF ====

    CD 4: Symphonie Nr. 3 (6) • Symphonie Nr. 4

    Exact Audio Copy V1.0 beta 3 from 29. August 2011
    EAC extraction logfile from 2. September 2013, 16:36
    Mahler / The Symphonies
    Used drive : TSSTcorpCDDVDW SH-216BB Adapter: 0 ID: 0
    Read mode : SecureUtilize accurate stream : YesDefeat audio cache : YesMake use of C2 pointers : No
    Read offset correction : 6Overread into Lead-In and Lead-Out : NoFill up missing offset samples with silence : YesDelete leading and trailing silent blocks : NoNull samples used in CRC calculations : YesUsed interface : Native Win32 interface for Win NT & 2000Gap handling : Appended to previous track
    Used output format : User Defined EncoderSelected bitrate : 1024 kBit/sQuality : HighAdd ID3 tag : NoCommand line compressor : C:\Program Files\Exact Audio Copy\Flac\flac.exeAdditional command line options : -6 -V -T "ARTIST=%artist%" -T "TITLE=%title%" -T "ALBUM=%albumtitle%" -T "DATE=%year%" -T "PERFORMER=%albuminterpret%" -T "TRACKNUMBER=%tracknr%" -T "TOTALTRACKS=%numtracks%" -T "GENRE=%genre%" -T "COMPOSER=%composer%" -T "ALBUMARTIST=%albumartist%" -T "ALBUM ARTIST=%albumartist%" -T "COMMENT=EAC Secure Mode, Test & Copy, AccurateRip, FLAC -6" %source%
    TOC of the extracted CD
    Track | Start | Length | Start sector | End sector --------------------------------------------------------- 1 | 0:00.33 | 22:12.00 | 33 | 99932 2 | 22:12.33 | 16:31.00 | 99933 | 174257 3 | 38:43.33 | 8:40.00 | 174258 | 213257 4 | 47:23.33 | 19:36.00 | 213258 | 301457 5 | 66:59.33 | 8:47.00 | 301458 | 340982
    Track 1
    Filename D:\EAC extraction\01 - Symphony No. 3 - VI. Langsam. Ruhevoll. Empfunden.wav
    Pre-gap length 0:00:02.33
    Peak level 97.7 % Extraction speed 2.2 X Track quality 99.9 % Test CRC 0E1EC2C9 Copy CRC 0E1EC2C9 Accurately ripped (confidence 11) [B4A270FF] (AR v2) Copy OK
    Track 2
    Filename D:\EAC extraction\02 - Symphony No. 4 - I. Bedaechtig. Nicht eilen - Recht gemaechlich.wav
    Pre-gap length 0:00:10.00
    Peak level 96.4 % Extraction speed 2.2 X Track quality 99.9 % Test CRC 9E78633D Copy CRC 9E78633D Accurately ripped (confidence 10) [A7E6CB05] (AR v2) Copy OK
    Track 3
    Filename D:\EAC extraction\03 - Symphony No. 4 - II. In gemaechlicher Bewegung. Ohne Hast.wav
    Pre-gap length 0:00:05.00
    Peak level 31.9 % Extraction speed 2.2 X Track quality 100.0 % Test CRC 2B8EDF24 Copy CRC 2B8EDF24 Accurately ripped (confidence 10) [87DEAED1] (AR v2) Copy OK
    Track 4
    Filename D:\EAC extraction\04 - Symphony No. 4 - III. Ruhevoll. Poco adagio.wav
    Pre-gap length 0:00:03.00
    Peak level 87.0 % Extraction speed 2.3 X Track quality 100.0 % Test CRC 62D90AA1 Copy CRC 62D90AA1 Accurately ripped (confidence 10) [F3F5EC04] (AR v2) Copy OK
    Track 5
    Filename D:\EAC extraction\05 - Symphony No. 4 - IV. Sehr behaglich.wav
    Pre-gap length 0:00:01.00
    Peak level 52.3 % Extraction speed 2.2 X Track quality 100.0 % Test CRC BAF59E42 Copy CRC BAF59E42 Accurately ripped (confidence 10) [752F0C4F] (AR v2) Copy OK
    All tracks accurately ripped
    No errors occurred
    End of status report
    ==== Log checksum ABD8B3159EB50E5125AE3F4332E78CA2E7293B1A0C95B13B744B208BBC3C1085 ====

    CD 5: Symphonie Nr. 5

    Exact Audio Copy V1.0 beta 3 from 29. August 2011
    EAC extraction logfile from 2. September 2013, 20:00
    Mahler / The Symphonies
    Used drive : TSSTcorpCDDVDW SH-216BB Adapter: 0 ID: 0
    Read mode : SecureUtilize accurate stream : YesDefeat audio cache : YesMake use of C2 pointers : No
    Read offset correction : 6Overread into Lead-In and Lead-Out : NoFill up missing offset samples with silence : YesDelete leading and trailing silent blocks : NoNull samples used in CRC calculations : YesUsed interface : Native Win32 interface for Win NT & 2000Gap handling : Appended to previous track
    Used output format : User Defined EncoderSelected bitrate : 1024 kBit/sQuality : HighAdd ID3 tag : NoCommand line compressor : C:\Program Files\Exact Audio Copy\Flac\flac.exeAdditional command line options : -6 -V -T "ARTIST=%artist%" -T "TITLE=%title%" -T "ALBUM=%albumtitle%" -T "DATE=%year%" -T "PERFORMER=%albuminterpret%" -T "TRACKNUMBER=%tracknr%" -T "TOTALTRACKS=%numtracks%" -T "GENRE=%genre%" -T "COMPOSER=%composer%" -T "ALBUMARTIST=%albumartist%" -T "ALBUM ARTIST=%albumartist%" -T "COMMENT=EAC Secure Mode, Test & Copy, AccurateRip, FLAC -6" %source%
    TOC of the extracted CD
    Track | Start | Length | Start sector | End sector --------------------------------------------------------- 1 | 0:00.33 | 12:22.00 | 33 | 55682 2 | 12:22.33 | 14:09.00 | 55683 | 119357 3 | 26:31.33 | 18:03.00 | 119358 | 200582 4 | 44:34.33 | 10:38.00 | 200583 | 248432 5 | 55:12.33 | 15:48.00 | 248433 | 319532
    Track 1
    Filename D:\EAC extraction\01 - Symphony No. 5 - I. Trauermarsch. In gemessenem Schritt.wav
    Pre-gap length 0:00:02.33
    Peak level 74.0 % Extraction speed 2.2 X Track quality 99.9 % Test CRC 66939435 Copy CRC 66939435 Accurately ripped (confidence 11) [1E0858F2] (AR v2) Copy OK
    Track 2
    Filename D:\EAC extraction\02 - Symphony No. 5 - II. Stuermisch bewegt. Mit groesster Vehemenz.wav
    Pre-gap length 0:00:03.00
    Peak level 91.6 % Extraction speed 2.3 X Track quality 100.0 % Test CRC 77BFF24A Copy CRC 77BFF24A Accurately ripped (confidence 11) [D301C072] (AR v2) Copy OK
    Track 3
    Filename D:\EAC extraction\03 - Symphony No. 5 - III. Scherzo. Kraeftig, nicht zu schnell.wav
    Pre-gap length 0:00:07.00
    Peak level 100.0 % Extraction speed 2.3 X Track quality 100.0 % Test CRC BE87A6C1 Copy CRC BE87A6C1 Accurately ripped (confidence 11) [3E478874] (AR v2) Copy OK
    Track 4
    Filename D:\EAC extraction\04 - Symphony No. 5 - IV. Adagietto. Sehr langsam.wav
    Pre-gap length 0:00:05.00
    Peak level 44.4 % Extraction speed 2.2 X Track quality 100.0 % Test CRC 193F191A Copy CRC 193F191A Accurately ripped (confidence 10) [CC675507] (AR v2) Copy OK
    Track 5
    Filename D:\EAC extraction\05 - Symphony No. 5 - V. Rondo-Finale. Allegro - Allegro giocoso. Frisch.wav
    Pre-gap length 0:00:04.00
    Peak level 100.0 % Extraction speed 2.3 X Track quality 100.0 % Test CRC EBEB8841 Copy CRC EBEB8841 Accurately ripped (confidence 11) [B12003BD] (AR v2) Copy OK
    All tracks accurately ripped
    No errors occurred
    End of status report
    ==== Log checksum A58C481A72930B4CD949E271803017B6A2580A7FD56D1842C0D161785311B915 ====

    CD 6: Symphonie Nr. 10 (Adadio) • Symphonie Nr. 6 (1-3)

    Exact Audio Copy V1.0 beta 3 from 29. August 2011
    EAC extraction logfile from 2. September 2013, 22:25
    Mahler / The Symphonies
    Used drive : TSSTcorpCDDVDW SH-216BB Adapter: 0 ID: 0
    Read mode : SecureUtilize accurate stream : YesDefeat audio cache : YesMake use of C2 pointers : No
    Read offset correction : 6Overread into Lead-In and Lead-Out : NoFill up missing offset samples with silence : YesDelete leading and trailing silent blocks : NoNull samples used in CRC calculations : YesUsed interface : Native Win32 interface for Win NT & 2000Gap handling : Appended to previous track
    Used output format : User Defined EncoderSelected bitrate : 1024 kBit/sQuality : HighAdd ID3 tag : NoCommand line compressor : C:\Program Files\Exact Audio Copy\Flac\flac.exeAdditional command line options : -6 -V -T "ARTIST=%artist%" -T "TITLE=%title%" -T "ALBUM=%albumtitle%" -T "DATE=%year%" -T "PERFORMER=%albuminterpret%" -T "TRACKNUMBER=%tracknr%" -T "TOTALTRACKS=%numtracks%" -T "GENRE=%genre%" -T "COMPOSER=%composer%" -T "ALBUMARTIST=%albumartist%" -T "ALBUM ARTIST=%albumartist%" -T "COMMENT=EAC Secure Mode, Test & Copy, AccurateRip, FLAC -6" %source%
    TOC of the extracted CD
    Track | Start | Length | Start sector | End sector --------------------------------------------------------- 1 | 0:00.32 | 24:38.00 | 32 | 110881 2 | 24:38.32 | 22:08.00 | 110882 | 210481 3 | 46:46.32 | 13:18.00 | 210482 | 270331 4 | 60:04.32 | 15:46.00 | 270332 | 341281
    Track 1
    Filename D:\EAC extraction\01 - Symphony No. 10 - Andante - Adagio.wav
    Pre-gap length 0:00:02.32
    Peak level 68.5 % Extraction speed 2.3 X Track quality 100.0 % Test CRC 5FCF87F7 Copy CRC 5FCF87F7 Accurately ripped (confidence 6) [E4A9B174] (AR v2) Copy OK
    Track 2
    Filename D:\EAC extraction\02 - Symphony No. 6 - I. Allegro energico, ma non troppo. Heftig, aber markig.wav
    Pre-gap length 0:00:07.00
    Peak level 93.4 % Extraction speed 2.2 X Track quality 99.9 % Test CRC E30FFC9E Copy CRC E30FFC9E Accurately ripped (confidence 7) [9D6A90D4] (AR v2) Copy OK
    Track 3
    Filename D:\EAC extraction\03 - Symphony No. 6 - II. Scherzo. Wuchtig.wav
    Pre-gap length 0:00:03.00
    Peak level 69.1 % Extraction speed 2.2 X Track quality 100.0 % Test CRC 89AA8BA8 Copy CRC 89AA8BA8 Accurately ripped (confidence 7) [6C3F3477] (AR v2) Copy OK
    Track 4
    Filename D:\EAC extraction\04 - Symphony No. 6 - III. Andante moderato.wav
    Pre-gap length 0:00:01.00
    Peak level 70.0 % Extraction speed 2.3 X Track quality 100.0 % Test CRC 7662AAF5 Copy CRC 7662AAF5 Accurately ripped (confidence 7) [1BC7558E] (AR v2) Copy OK
    All tracks accurately ripped
    No errors occurred
    End of status report
    ==== Log checksum C13DCCDD5A63D483153989A54D6BEE3E02D6DEF56ECF97BD4B25CDBDA35A1733 ====

    CD 7: Symphonie Nr. 6 (4) • Symphonie Nr. 9 (1, 2)

    Exact Audio Copy V1.0 beta 3 from 29. August 2011
    EAC extraction logfile from 3. September 2013, 15:35
    Mahler / The Symphonies
    Used drive : TSSTcorpCDDVDW SH-216BB Adapter: 0 ID: 0
    Read mode : SecureUtilize accurate stream : YesDefeat audio cache : YesMake use of C2 pointers : No
    Read offset correction : 6Overread into Lead-In and Lead-Out : NoFill up missing offset samples with silence : YesDelete leading and trailing silent blocks : NoNull samples used in CRC calculations : YesUsed interface : Native Win32 interface for Win NT & 2000Gap handling : Appended to previous track
    Used output format : User Defined EncoderSelected bitrate : 1024 kBit/sQuality : HighAdd ID3 tag : NoCommand line compressor : C:\Program Files\Exact Audio Copy\Flac\flac.exeAdditional command line options : -6 -V -T "ARTIST=%artist%" -T "TITLE=%title%" -T "ALBUM=%albumtitle%" -T "DATE=%year%" -T "PERFORMER=%albuminterpret%" -T "TRACKNUMBER=%tracknr%" -T "TOTALTRACKS=%numtracks%" -T "GENRE=%genre%" -T "COMPOSER=%composer%" -T "ALBUMARTIST=%albumartist%" -T "ALBUM ARTIST=%albumartist%" -T "COMMENT=EAC Secure Mode, Test & Copy, AccurateRip, FLAC -6" %source%
    TOC of the extracted CD
    Track | Start | Length | Start sector | End sector --------------------------------------------------------- 1 | 0:00.33 | 29:45.00 | 33 | 133907 2 | 29:45.33 | 27:04.00 | 133908 | 255707 3 | 56:49.33 | 15:58.00 | 255708 | 327557
    Track 1
    Filename D:\EAC extraction\01 - Symphony No. 6 - IV. Finale. Allegro moderato - Allegro energico.wav
    Pre-gap length 0:00:02.33
    Peak level 97.7 % Extraction speed 2.3 X Track quality 100.0 % Test CRC CAD2044D Copy CRC CAD2044D Accurately ripped (confidence 8) [DEDFE0FB] (AR v2) Copy OK
    Track 2
    Filename D:\EAC extraction\02 - Symphony No. 9 - I. Andante comodo.wav
    Pre-gap length 0:00:05.74
    Peak level 95.8 % Extraction speed 2.3 X Track quality 100.0 % Test CRC 6F878FB0 Copy CRC 6F878FB0 Accurately ripped (confidence 7) [2DBFF385] (AR v2) Copy OK
    Track 3
    Filename D:\EAC extraction\03 - Symphony No. 9 - II. Im Tempo eines gemaechlichen Laendlers.wav
    Pre-gap length 0:00:05.74
    Peak level 83.9 % Extraction speed 2.3 X Track quality 100.0 % Test CRC 3B82DD1A Copy CRC 3B82DD1A Accurately ripped (confidence 7) [1E51408E] (AR v2) Copy OK
    All tracks accurately ripped
    No errors occurred
    End of status report
    ==== Log checksum 724A31D4168826309A0C02F2946FB01882B46E3D495A790008679E5A1EE3F020 ====

    CD 8: Symphonie Nr. 9 (3, 4)

    Exact Audio Copy V1.0 beta 3 from 29. August 2011
    EAC extraction logfile from 3. September 2013, 20:04
    Mahler / The Symphonies
    Used drive : TSSTcorpCDDVDW SH-216BB Adapter: 0 ID: 0
    Read mode : SecureUtilize accurate stream : YesDefeat audio cache : YesMake use of C2 pointers : No
    Read offset correction : 6Overread into Lead-In and Lead-Out : NoFill up missing offset samples with silence : YesDelete leading and trailing silent blocks : NoNull samples used in CRC calculations : YesUsed interface : Native Win32 interface for Win NT & 2000Gap handling : Appended to previous track
    Used output format : User Defined EncoderSelected bitrate : 1024 kBit/sQuality : HighAdd ID3 tag : NoCommand line compressor : C:\Program Files\Exact Audio Copy\Flac\flac.exeAdditional command line options : -6 -V -T "ARTIST=%artist%" -T "TITLE=%title%" -T "ALBUM=%albumtitle%" -T "DATE=%year%" -T "PERFORMER=%albuminterpret%" -T "TRACKNUMBER=%tracknr%" -T "TOTALTRACKS=%numtracks%" -T "GENRE=%genre%" -T "COMPOSER=%composer%" -T "ALBUMARTIST=%albumartist%" -T "ALBUM ARTIST=%albumartist%" -T "COMMENT=EAC Secure Mode, Test & Copy, AccurateRip, FLAC -6" %source%
    TOC of the extracted CD
    Track | Start | Length | Start sector | End sector --------------------------------------------------------- 1 | 0:00.33 | 13:03.00 | 33 | 58757 2 | 13:03.33 | 24:42.00 | 58758 | 169907
    Track 1
    Filename D:\EAC extraction\01 - Symphony No. 9 - III. Rondo-Burleske. Allegro assai. Sehr trotzig - Presto.wav
    Pre-gap length 0:00:02.33
    Peak level 92.8 % Extraction speed 2.3 X Track quality 100.0 % Test CRC 0DB2A996 Copy CRC 0DB2A996 Accurately ripped (confidence 10) [38514EBF] (AR v2) Copy OK
    Track 2
    Filename D:\EAC extraction\02 - Symphony No. 9 - IV. Adagio. Sehr langsam und noch zurueckhaltend.wav
    Pre-gap length 0:00:05.00
    Peak level 91.9 % Extraction speed 2.3 X Track quality 100.0 % Test CRC 000E35BC Copy CRC 000E35BC Accurately ripped (confidence 10) [DCF1D85E] (AR v2) Copy OK
    All tracks accurately ripped
    No errors occurred
    End of status report
    ==== Log checksum F8A4F916106EC015FC260D23A9D769860E16C976AD63F5EEF53172707112412A ====

    CD 9: Symphonie Nr. 7

    Exact Audio Copy V1.0 beta 3 from 29. August 2011
    EAC extraction logfile from 4. September 2013, 11:07
    Mahler / The Symphonies
    Used drive : TSSTcorpCDDVDW SH-216BB Adapter: 0 ID: 0
    Read mode : SecureUtilize accurate stream : YesDefeat audio cache : YesMake use of C2 pointers : No
    Read offset correction : 6Overread into Lead-In and Lead-Out : NoFill up missing offset samples with silence : YesDelete leading and trailing silent blocks : NoNull samples used in CRC calculations : YesUsed interface : Native Win32 interface for Win NT & 2000Gap handling : Appended to previous track
    Used output format : User Defined EncoderSelected bitrate : 1024 kBit/sQuality : HighAdd ID3 tag : NoCommand line compressor : C:\Program Files\Exact Audio Copy\Flac\flac.exeAdditional command line options : -6 -V -T "ARTIST=%artist%" -T "TITLE=%title%" -T "ALBUM=%albumtitle%" -T "DATE=%year%" -T "PERFORMER=%albuminterpret%" -T "TRACKNUMBER=%tracknr%" -T "TOTALTRACKS=%numtracks%" -T "GENRE=%genre%" -T "COMPOSER=%composer%" -T "ALBUMARTIST=%albumartist%" -T "ALBUM ARTIST=%albumartist%" -T "COMMENT=EAC Secure Mode, Test & Copy, AccurateRip, FLAC -6" %source%
    TOC of the extracted CD
    Track | Start | Length | Start sector | End sector --------------------------------------------------------- 1 | 0:00.33 | 20:51.62 | 33 | 93919 2 | 20:52.20 | 14:39.43 | 93920 | 159887 3 | 35:31.63 | 9:49.60 | 159888 | 204122 4 | 45:21.48 | 12:45.60 | 204123 | 261557 5 | 58:07.33 | 17:55.00 | 261558 | 342182
    Track 1
    Filename D:\EAC extraction\01 - Symphony No. 7 - I. Langsam. Adagio - Allegro.wav
    Pre-gap length 0:00:02.33
    Peak level 82.5 % Extraction speed 2.3 X Track quality 100.0 % Test CRC 7D610612 Copy CRC 7D610612 Accurately ripped (confidence 10) [B2F98CB5] (AR v2) Copy OK
    Track 2
    Filename D:\EAC extraction\02 - Symphony No. 7 - II. Nachtmusik. Allegro moderato.wav
    Pre-gap length 0:00:03.62
    Peak level 53.1 % Extraction speed 2.3 X Track quality 100.0 % Test CRC 503104E8 Copy CRC 503104E8 Accurately ripped (confidence 10) [5AC46D13] (AR v2) Copy OK
    Track 3
    Filename D:\EAC extraction\03 - Symphony No. 7 - III. Scherzo.wav
    Pre-gap length 0:00:03.30
    Peak level 48.2 % Extraction speed 2.2 X Track quality 100.0 % Test CRC ADCC0DBF Copy CRC ADCC0DBF Accurately ripped (confidence 10) [B92E3DEE] (AR v2) Copy OK
    Track 4
    Filename D:\EAC extraction\04 - Symphony No. 7 - IV. Nachtmusik. Andante amoroso.wav
    Pre-gap length 0:00:04.15
    Peak level 47.0 % Extraction speed 2.2 X Track quality 100.0 % Test CRC FE4B8BEA Copy CRC FE4B8BEA Accurately ripped (confidence 10) [A6367CC8] (AR v2) Copy OK
    Track 5
    Filename D:\EAC extraction\05 - Symphony No. 7 - V. Rondo-Finale.wav
    Pre-gap length 0:00:02.00
    Peak level 99.9 % Extraction speed 2.2 X Track quality 99.9 % Test CRC 39CE1158 Copy CRC 39CE1158 Accurately ripped (confidence 10) [0A71F4A6] (AR v2) Copy OK
    All tracks accurately ripped
    No errors occurred
    End of status report
    ==== Log checksum B15641ECBA2EEE1EDE004DF3E1626CE154EAA8983C50EC9AA78F332572FDCD59 ====

    CD 10: Symphonie Nr. 8

    Exact Audio Copy V1.0 beta 3 from 29. August 2011
    EAC extraction logfile from 4. September 2013, 15:30
    Mahler / The Symphonies
    Used drive : TSSTcorpCDDVDW SH-216BB Adapter: 0 ID: 0
    Read mode : SecureUtilize accurate stream : YesDefeat audio cache : YesMake use of C2 pointers : No
    Read offset correction : 6Overread into Lead-In and Lead-Out : NoFill up missing offset samples with silence : YesDelete leading and trailing silent blocks : NoNull samples used in CRC calculations : YesUsed interface : Native Win32 interface for Win NT & 2000Gap handling : Appended to previous track
    Used output format : User Defined EncoderSelected bitrate : 1024 kBit/sQuality : HighAdd ID3 tag : NoCommand line compressor : C:\Program Files\Exact Audio Copy\Flac\flac.exeAdditional command line options : -6 -V -T "ARTIST=%artist%" -T "TITLE=%title%" -T "ALBUM=%albumtitle%" -T "DATE=%year%" -T "PERFORMER=%albuminterpret%" -T "TRACKNUMBER=%tracknr%" -T "TOTALTRACKS=%numtracks%" -T "GENRE=%genre%" -T "COMPOSER=%composer%" -T "ALBUMARTIST=%albumartist%" -T "ALBUM ARTIST=%albumartist%" -T "COMMENT=EAC Secure Mode, Test & Copy, AccurateRip, FLAC -6" %source%
    TOC of the extracted CD
    Track | Start | Length | Start sector | End sector --------------------------------------------------------- 1 | 0:00.32 | 1:23.45 | 32 | 6301 2 | 1:24.02 | 3:01.30 | 6302 | 19906 3 | 4:25.32 | 3:37.33 | 19907 | 36214 4 | 8:02.65 | 2:53.12 | 36215 | 49201 5 | 10:56.02 | 5:40.40 | 49202 | 74741 6 | 16:36.42 | 2:28.65 | 74742 | 85906 7 | 19:05.32 | 3:23.00 | 85907 | 101131 8 | 22:28.32 | 5:05.00 | 101132 | 124006 9 | 27:33.32 | 3:00.13 | 124007 | 137519 10 | 30:33.45 | 3:22.65 | 137520 | 152734 11 | 33:56.35 | 1:23.32 | 152735 | 158991 12 | 35:19.67 | 4:34.48 | 158992 | 179589 13 | 39:54.40 | 1:04.25 | 179590 | 184414 14 | 40:58.65 | 2:14.05 | 184415 | 194469 15 | 43:12.70 | 1:51.60 | 194470 | 202854 16 | 45:04.55 | 5:44.50 | 202855 | 228704 17 | 50:49.30 | 3:33.72 | 228705 | 244751 18 | 54:23.27 | 5:59.43 | 244752 | 271719 19 | 60:22.70 | 4:25.25 | 271720 | 291619 20 | 64:48.20 | 5:44.57 | 291620 | 317476 21 | 70:33.02 | 5:07.30 | 317477 | 340531
    Track 1
    Filename D:\EAC extraction\01 - Symphony No. 8 - Veni, creator spiritus.wav
    Pre-gap length 0:00:02.32
    Peak level 50.8 % Extraction speed 1.6 X Track quality 100.0 % Test CRC B8705039 Copy CRC B8705039 Accurately ripped (confidence 18) [18132278] (AR v2) Copy OK
    Track 2
    Filename D:\EAC extraction\02 - Symphony No. 8 - Imple superna gratia.wav
    Peak level 57.3 % Extraction speed 2.0 X Track quality 100.0 % Test CRC CF35330B Copy CRC CF35330B Accurately ripped (confidence 18) [7FA803BD] (AR v2) Copy OK
    Track 3
    Filename D:\EAC extraction\03 - Symphony No. 8 - Infirma nostri corporis.wav
    Peak level 50.9 % Extraction speed 1.7 X Track quality 99.9 % Test CRC A8B03B84 Copy CRC A8B03B84 Accurately ripped (confidence 18) [F725B3F7] (AR v2) Copy OK
    Track 4
    Filename D:\EAC extraction\04 - Symphony No. 8 - Infirma nostri corporis.wav
    Peak level 29.3 % Extraction speed 1.9 X Track quality 100.0 % Test CRC 5CAEDBDD Copy CRC 5CAEDBDD Accurately ripped (confidence 18) [224EA835] (AR v2) Copy OK
    Track 5
    Filename D:\EAC extraction\05 - Symphony No. 8 - Accende lumen sensibus.wav
    Peak level 85.4 % Extraction speed 2.1 X Track quality 100.0 % Test CRC FBEB1717 Copy CRC FBEB1717 Accurately ripped (confidence 18) [20996370] (AR v2) Copy OK
    Track 6
    Filename D:\EAC extraction\06 - Symphony No. 8 - Qui Paraclitus diceris.wav
    Peak level 69.6 % Extraction speed 1.8 X Track quality 100.0 % Test CRC CF1A1492 Copy CRC CF1A1492 Accurately ripped (confidence 18) [C890091D] (AR v2) Copy OK
    Track 7
    Filename D:\EAC extraction\07 - Symphony No. 8 - Gloria sit Patri Domino.wav
    Peak level 95.3 % Extraction speed 2.0 X Track quality 100.0 % Test CRC BE9FFBE1 Copy CRC BE9FFBE1 Accurately ripped (confidence 18) [AA6F5C94] (AR v2) Copy OK
    Track 8
    Filename D:\EAC extraction\08 - Symphony No. 8 - Poco adagio.wav
    Pre-gap length 0:00:01.00
    Peak level 35.2 % Extraction speed 2.1 X Track quality 100.0 % Test CRC AEB53134 Copy CRC AEB53134 Accurately ripped (confidence 18) [7A34181E] (AR v2) Copy OK
    Track 9
    Filename D:\EAC extraction\09 - Symphony No. 8 - Piu mosso. Allegro moderato.wav
    Peak level 49.7 % Extraction speed 1.9 X Track quality 100.0 % Test CRC EBA0245F Copy CRC EBA0245F Accurately ripped (confidence 18) [4F9FD7B5] (AR v2) Copy OK
    Track 10
    Filename D:\EAC extraction\10 - Symphony No. 8 - Waldung, sie schwankt heran.wav
    Peak level 8.4 % Extraction speed 1.7 X Track quality 99.9 % Test CRC 0D5B5F28 Copy CRC 0D5B5F28 Accurately ripped (confidence 18) [A5305999] (AR v2) Copy OK
    Track 11
    Filename D:\EAC extraction\11 - Symphony No. 8 - Ewiger Wonnebrand.wav
    Peak level 31.8 % Extraction speed 1.6 X Track quality 100.0 % Test CRC A0D41FB0 Copy CRC A0D41FB0 Accurately ripped (confidence 18) [9BDA6B26] (AR v2) Copy OK
    Track 12
    Filename D:\EAC extraction\12 - Symphony No. 8 - Wie Felsenabgrund mir zu Fuessen.wav
    Peak level 48.1 % Extraction speed 2.1 X Track quality 100.0 % Test CRC CAB64ECC Copy CRC CAB64ECC Accurately ripped (confidence 18) [F278795B] (AR v2) Copy OK
    Track 13
    Filename D:\EAC extraction\13 - Symphony No. 8 - Gerettet ist das edle Glied.wav
    Peak level 52.9 % Extraction speed 1.4 X Track quality 100.0 % Test CRC DE4758FB Copy CRC DE4758FB Accurately ripped (confidence 18) [80863287] (AR v2) Copy OK
    Track 14
    Filename D:\EAC extraction\14 - Symphony No. 8 - Jene Rosen, aus den Haenden.wav
    Peak level 55.1 % Extraction speed 1.8 X Track quality 100.0 % Test CRC E1AC4734 Copy CRC E1AC4734 Accurately ripped (confidence 18) [081AFE0E] (AR v2) Copy OK
    Track 15
    Filename D:\EAC extraction\15 - Symphony No. 8 - Uns bleibt ein Erdenrest.wav
    Peak level 15.6 % Extraction speed 1.7 X Track quality 100.0 % Test CRC C0BEA376 Copy CRC C0BEA376 Accurately ripped (confidence 18) [E3005370] (AR v2) Copy OK
    Track 16
    Filename D:\EAC extraction\16 - Symphony No. 8 - Ich spuer' soeben.wav
    Peak level 44.5 % Extraction speed 2.1 X Track quality 100.0 % Test CRC 45113A32 Copy CRC 45113A32 Accurately ripped (confidence 18) [FB0AE6CD] (AR v2) Copy OK
    Track 17
    Filename D:\EAC extraction\17 - Symphony No. 8 - Dir, der Unberuehrbaren.wav
    Peak level 51.0 % Extraction speed 2.0 X Track quality 100.0 % Test CRC B5AB85C3 Copy CRC B5AB85C3 Accurately ripped (confidence 18) [5A865EAD] (AR v2) Copy OK
    Track 18
    Filename D:\EAC extraction\18 - Symphony No. 8 - Bei der Liebe, die den Fuessen.wav
    Peak level 73.2 % Extraction speed 2.1 X Track quality 100.0 % Test CRC EF96DB9E Copy CRC EF96DB9E Accurately ripped (confidence 18) [7CC642B2] (AR v2) Copy OK
    Track 19
    Filename D:\EAC extraction\19 - Symphony No. 8 - Er ueberwaechst uns schon.wav
    Peak level 60.6 % Extraction speed 2.1 X Track quality 100.0 % Test CRC 4EF1F29D Copy CRC 4EF1F29D Accurately ripped (confidence 18) [52CC8DDC] (AR v2) Copy OK
    Track 20
    Filename D:\EAC extraction\20 - Symphony No. 8 - Blicket auf zum Retterblick.wav
    Peak level 82.1 % Extraction speed 2.1 X Track quality 100.0 % Test CRC 80515ADB Copy CRC 80515ADB Accurately ripped (confidence 18) [050DF37E] (AR v2) Copy OK
    Track 21
    Filename D:\EAC extraction\21 - Symphony No. 8 - Alles Vergaengliche.wav
    Peak level 99.8 % Extraction speed 1.9 X Track quality 99.9 % Test CRC 01BA8B15 Copy CRC 01BA8B15 Accurately ripped (confidence 19) [0D9E6E84] (AR v2) Copy OK
    All tracks accurately ripped
    No errors occurred
    End of status report
    ==== Log checksum DEEB9972566D190A01B3BC7B1FEB54C6102A8D9FBD1C3D491F20CB5AC3182987 ====

    auCDtect Task Manager logs / Отчёты auCDtect Task ManagerCD 1: Symphonie Nr. 1 • Symphonie Nr. 2 (1)

    -----------------------
    DON'T MODIFY THIS FILE
    -----------------------
    PERFORMER: auCDtect Task Manager, ver. 1.5.1RC3 build 1.5.1.4Copyright (c) 2008-2010 y-soft. All rights reserved
    ANALYZER: auCDtect: CD records authenticity detector, version 0.8.2Copyright (c) 2004 Oleg Berngardt. All rights reserved.Copyright (c) 2004 Alexander Djourik. All rights reserved.
    FILE: 05 - Symphonie Nr. 2 - I. Allegro maestoso.flac Size: 95411278 Hash: B01B427DA62822E3A6DF90839EC0ADCD Accuracy: -m0 Conclusion: CDDA 100% Signature: 84F203FE67FC60ED7C7C8D8FFE45DAA670E428FFFILE: 04 - Symphonie Nr. 1 - IV. Stuermisch bewegt.flac Size: 105554668 Hash: BC11F37FB747B8C47F2B5D5F242BD04D Accuracy: -m0 Conclusion: CDDA 100% Signature: E5F1333E8F6205154DB378C65C1F7E4F68FA1877FILE: 03 - Symphonie Nr. 1 - III. Feierlich und gemessen, ohne zu schleppen.flac Size: 46051600 Hash: 0C7B3D47620DB1A90FD52B3DA1037633 Accuracy: -m0 Conclusion: CDDA 100% Signature: 0D8FB35171140045C8827623513455724B758E2FFILE: 02 - Symphonie Nr. 1 - Recht gemaechlich.flac Size: 39883784 Hash: 092477AE2865EDE7DDAC42C4E6BFD955 Accuracy: -m0 Conclusion: CDDA 100% Signature: 69669745253955A0D243F61267D022D20709A772FILE: 01 - Symphonie Nr. 1 - Sehr gemaechlich.flac Size: 62639845 Hash: D8578B97CCE1C8E8047BA4FB81B68BD0 Accuracy: -m0 Conclusion: CDDA 100% Signature: C73F12520531E9E5AA3FA6ABF79F9830E2D07188

    CD 2: Symphonie Nr. 2 (2-5)

    -----------------------
    DON'T MODIFY THIS FILE
    -----------------------
    PERFORMER: auCDtect Task Manager, ver. 1.5.1RC3 build 1.5.1.4Copyright (c) 2008-2010 y-soft. All rights reserved
    ANALYZER: auCDtect: CD records authenticity detector, version 0.8.2Copyright (c) 2004 Oleg Berngardt. All rights reserved.Copyright (c) 2004 Alexander Djourik. All rights reserved.
    FILE: 08 - Symphonie Nr. 2 - Etwas bewegter.flac Size: 43538351 Hash: 3632487EEA78E973D193D26E7CF6857C Accuracy: -m0 Conclusion: CDDA 100% Signature: C14E91F4113DC02D2E53EEE0AA65C7CECF96A6B8FILE: 07 - Symphonie Nr. 2 - Langsam. Misterioso.flac Size: 26359965 Hash: DD8C4DCEFAA8168003A2EEC893B7D859 Accuracy: -m0 Conclusion: CDDA 100% Signature: 087444DA08913A0EE0A4AF3B1E24D734FA0C4B74FILE: 06 - Symphonie Nr. 2 - Sehr langsam und gedehnt.flac Size: 8496496 Hash: B8EDE8E91426495C873422D352BD7350 Accuracy: -m0 Conclusion: CDDA 100% Signature: 070EBFD6A8314B709BB76742F5B0905C1E9041B7FILE: 05 - Symphonie Nr. 2 - Maestoso.flac Size: 42662404 Hash: 1C78D457DB00420F83D671055A652F9C Accuracy: -m0 Conclusion: CDDA 100% Signature: CF42BC6C45B77C82FA55C5600A67A36F6F72A1F4FILE: 04 - Symphonie Nr. 2 - V. Im Tempo des Scherzos. Wild herausfahrend.flac Size: 42517597 Hash: A99646B3F40D482778C4DB3BE075A569 Accuracy: -m0 Conclusion: CDDA 100% Signature: 43C4DF67FCD5777072C737CA5EEEEEF462AFB25EFILE: 03 - Symphonie Nr. 2 - IV. Urlicht. Sehr feierlich, aber schlicht.flac Size: 21326443 Hash: 75CAE5DC0F40998232943D625B80E1A3 Accuracy: -m0 Conclusion: CDDA 100% Signature: 3EA293A32D47DE84DC7D9EEC44540A6F2D52F147FILE: 02 - Symphonie Nr. 2 - III. Scherzo. In ruhig fliessender Bewegung.flac Size: 51557474 Hash: 991D588600ED35943FA98DD62E7E4A6E Accuracy: -m0 Conclusion: CDDA 100% Signature: 99CEECB17F35C34DE8EA57B0526BFB0A20B785BCFILE: 01 - Symphonie Nr. 2 - II. Andante moderato.flac Size: 46539555 Hash: 3F9B75258A91718C094986970DA42CDF Accuracy: -m0 Conclusion: CDDA 100% Signature: 8C602C38C6514748D047B57453A42B50184311CE

    CD 3: Symphonie Nr. 3 (1-5)

    -----------------------
    DON'T MODIFY THIS FILE
    -----------------------
    PERFORMER: auCDtect Task Manager, ver. 1.5.1RC3 build 1.5.1.4Copyright (c) 2008-2010 y-soft. All rights reserved
    ANALYZER: auCDtect: CD records authenticity detector, version 0.8.2Copyright (c) 2004 Oleg Berngardt. All rights reserved.Copyright (c) 2004 Alexander Djourik. All rights reserved.
    FILE: 05 - Symphonie Nr. 3 - V. Lustig im Tempo und Keck im Ausdruck.flac Size: 19358626 Hash: 25F74A9AB965FE3AC674C36FDB7F0376 Accuracy: -m0 Conclusion: CDDA 100% Signature: F02CAFCE75AA80DB64565A2AAA5567D7EBB4B929FILE: 04 - Symphonie Nr. 3 - IV. Sehr langsam. Misterioso.flac Size: 33118612 Hash: 28D1DD5368E7E26B92D394250823AD5C Accuracy: -m0 Conclusion: CDDA 100% Signature: 1BF9F87D0B03A7BDE76AAE6C0797C12BCC50472FFILE: 03 - Symphonie Nr. 3 - III. Comodo. Scherzando. Ohne Hast.flac Size: 75193888 Hash: CEA3B8147075C308E700A2D4468100A7 Accuracy: -m0 Conclusion: CDDA 100% Signature: 31581BFDBA9ACC9E07597B924E9801F8DF7315C1FILE: 02 - Symphonie Nr. 3 - II. Tempo di Menuetto. Sehr maessig.flac Size: 42623601 Hash: 091A87075372C2ACAD650CE79CD5FD40 Accuracy: -m0 Conclusion: CDDA 100% Signature: 4C4FAA7955151710FCC9BDC65F885291EB192475FILE: 01 - Symphonie Nr. 3 - I. Kraeftig. Entschieden.flac Size: 154103402 Hash: 642C9F547FBFA37E4A92952B2743A612 Accuracy: -m0 Conclusion: CDDA 100% Signature: DA0F5D76F862EB506BF4A47B9D40E366D3678040

    CD 4: Symphonie Nr. 3 (6) • Symphonie Nr. 4

    -----------------------
    DON'T MODIFY THIS FILE
    -----------------------
    PERFORMER: auCDtect Task Manager, ver. 1.5.1RC3 build 1.5.1.4Copyright (c) 2008-2010 y-soft. All rights reserved
    ANALYZER: auCDtect: CD records authenticity detector, version 0.8.2Copyright (c) 2004 Oleg Berngardt. All rights reserved.Copyright (c) 2004 Alexander Djourik. All rights reserved.
    FILE: 05 - Symphonie Nr. 4 - IV. Sehr behaglich.flac Size: 35569048 Hash: C06C7B1D8BC911CC4422555507F7D877 Accuracy: -m0 Conclusion: CDDA 100% Signature: 233428F57CE37D0FEE93CA03955CC08421818A6BFILE: 04 - Symphonie Nr. 4 - III. Ruhevoll.flac Size: 85747836 Hash: 1539188E0B649179A5D023CC0FC9B242 Accuracy: -m0 Conclusion: CDDA 100% Signature: 195BA664E84103E0A9EA60B4E893E931FEFD4849FILE: 03 - Symphonie Nr. 4 - II. In gemaechlicher Bewegung. Ohne Hast.flac Size: 35198764 Hash: 2FB2C488C7F0C80E9DECD8D2872FABC0 Accuracy: -m0 Conclusion: CDDA 100% Signature: 8EB7DE68423B927683C581CCABB8FFAE67868FF1FILE: 02 - Symphonie Nr. 4 - Recht gemaechlich.flac Size: 78159571 Hash: 83895E802439A742216FBB223925D872 Accuracy: -m0 Conclusion: CDDA 100% Signature: 8384EB72D57ACA31842AB498D1CA8841FF2AC70AFILE: 01 - Symphonie Nr. 3 - VI. Langsam. Ruhevoll. Empfunden.flac Size: 111196604 Hash: 439A2C3CE85791A5648EE45760802265 Accuracy: -m0 Conclusion: CDDA 100% Signature: 4BD421EC66A1485B816EA4A1A13ABC25FE64491D

    CD 5: Symphonie Nr. 5

    -----------------------
    DON'T MODIFY THIS FILE
    -----------------------
    PERFORMER: auCDtect Task Manager, ver. 1.5.1RC3 build 1.5.1.4Copyright (c) 2008-2010 y-soft. All rights reserved
    ANALYZER: auCDtect: CD records authenticity detector, version 0.8.2Copyright (c) 2004 Oleg Berngardt. All rights reserved.Copyright (c) 2004 Alexander Djourik. All rights reserved.
    FILE: 05 - Symphonie Nr. 5 - Allegro giocoso. Frisch.flac Size: 81532740 Hash: 12A24AD6D6C8E3BD1F6BF01E4C16996E Accuracy: -m0 Conclusion: CDDA 100% Signature: 59239BEA882DE6A7F4D5CF0199B189570CE69408FILE: 04 - Symphonie Nr. 5 - IV. Adagietto. Sehr langsam.flac Size: 46565056 Hash: 1391D49E8B6B147D2A68CD022D328DE4 Accuracy: -m0 Conclusion: CDDA 100% Signature: 6487DBC95D520C542FEA6CD7B4DBB0C6E1FA9AE6FILE: 03 - Symphonie Nr. 5 - III. Scherzo. Kraeftig, nicht zu schnell.flac Size: 85628144 Hash: 8ADE4246362F7EEB21F1A0430079E03A Accuracy: -m0 Conclusion: CDDA 100% Signature: 81DB4AFD900FB8B1106EB81BA5285FEEEC9B5F53FILE: 02 - Symphonie Nr. 5 - II. Stuermisch bewegt. Mit groesster Vehemenz.flac Size: 73766184 Hash: C44AC2B8CAEAEC457ADB6A514BE009D0 Accuracy: -m0 Conclusion: CDDA 100% Signature: 942738B5492A6F2F3540AAF1D1CE1F721813D80DFILE: 01 - Symphonie Nr. 5 - I. Trauermarsch. In gemessenem Schritt. Streng. Wie ein Kondukt.flac Size: 57643105 Hash: 4F87C1DAEFF881D9DB426FF54A405BAB Accuracy: -m0 Conclusion: CDDA 100% Signature: 456291C8D29319172EFD50ACB90644A1559B0AB2

    CD 6: Symphonie Nr. 10 (Adadio) • Symphonie Nr. 6 (1-3)

    -----------------------
    DON'T MODIFY THIS FILE
    -----------------------
    PERFORMER: auCDtect Task Manager, ver. 1.5.1RC3 build 1.5.1.4Copyright (c) 2008-2010 y-soft. All rights reserved
    ANALYZER: auCDtect: CD records authenticity detector, version 0.8.2Copyright (c) 2004 Oleg Berngardt. All rights reserved.Copyright (c) 2004 Alexander Djourik. All rights reserved.
    FILE: 04 - Symphonie Nr. 6 - III. Andante moderato.flac Size: 73919977 Hash: 6BD78EFC01C11DC13B7EC0985D0A253B Accuracy: -m0 Conclusion: CDDA 100% Signature: 8DA26EBC86BF2CFFCF15631C56F495B71FA26A3EFILE: 03 - Symphonie Nr. 6 - II. Scherzo. Wuchtig.flac Size: 60334326 Hash: 1D996E624F56667730AD10499F376A58 Accuracy: -m0 Conclusion: CDDA 100% Signature: 7ECE185520BE169D741537D938BB00C10039465FFILE: 02 - Symphonie Nr. 6 - I. Allegro energico, ma non troppo.flac Size: 115437905 Hash: 8686B05D9B22F87768969910B85C16F2 Accuracy: -m0 Conclusion: CDDA 100% Signature: 8C22E1707FAB52AC561677976F2933572C87B450FILE: 01 - Symphonie Nr. 10 - Adagio.flac Size: 112373189 Hash: EBEA209E2BD0F354908570CC3D27E36D Accuracy: -m0 Conclusion: CDDA 100% Signature: 6F039C622BB46B5907B02D56EFF5E613FD2A9F17

    CD 7: Symphonie Nr. 6 (4) • Symphonie Nr. 9 (1, 2)

    -----------------------
    DON'T MODIFY THIS FILE
    -----------------------
    PERFORMER: auCDtect Task Manager, ver. 1.5.1RC3 build 1.5.1.4Copyright (c) 2008-2010 y-soft. All rights reserved
    ANALYZER: auCDtect: CD records authenticity detector, version 0.8.2Copyright (c) 2004 Oleg Berngardt. All rights reserved.Copyright (c) 2004 Alexander Djourik. All rights reserved.
    FILE: 03 - Symphonie Nr. 9 - II. Im Tempo eines gemaechlichen Laendlers.flac Size: 79000670 Hash: 91CFF3F2716C24F624EF207770BDDE7E Accuracy: -m0 Conclusion: CDDA 100% Signature: E9DAFA2B9C20438D08FCE2EFC2B9FD3AE72ADC42FILE: 02 - Symphonie Nr. 9 - Mit Wut. Allegro risoluto.flac Size: 131393365 Hash: 7BD1B67CEA2E981057FFED0739CF2210 Accuracy: -m0 Conclusion: CDDA 100% Signature: E981B8D7632B847D7A6636F7B2033B038742D5B7FILE: 01 - Symphonie Nr. 6 - Allegro energico.flac Size: 155995668 Hash: BB45E1F6069C845D1708062EF3D14CA1 Accuracy: -m0 Conclusion: CDDA 100% Signature: 7A36135FFBBC85A68B54351871F858F201A63210

    CD 8: Symphonie Nr. 9 (3, 4)

    -----------------------
    DON'T MODIFY THIS FILE
    -----------------------
    PERFORMER: auCDtect Task Manager, ver. 1.5.1RC3 build 1.5.1.4Copyright (c) 2008-2010 y-soft. All rights reserved
    ANALYZER: auCDtect: CD records authenticity detector, version 0.8.2Copyright (c) 2004 Oleg Berngardt. All rights reserved.Copyright (c) 2004 Alexander Djourik. All rights reserved.
    FILE: 02 - Symphonie Nr. 9 - IV. Adagio. Sehr langsam und noch zurueckhaltend.flac Size: 122430530 Hash: F687487D0D0AB844EB6D497BB742CC82 Accuracy: -m0 Conclusion: CDDA 100% Signature: 23159A7DDFF34C4A7C8FC0E0928291C478B8729FFILE: 01 - Symphonie Nr. 9 - III. Rondo-Burleske. Allegro assai. Sehr trotzig.flac Size: 72287753 Hash: 142BFE1C72B63FA0EDFE36064543363A Accuracy: -m0 Conclusion: CDDA 100% Signature: 67444A1886B316C71CACCB585741752886F42B6B

    CD 9: Symphonie Nr. 7

    -----------------------
    DON'T MODIFY THIS FILE
    -----------------------
    PERFORMER: auCDtect Task Manager, ver. 1.5.1RC3 build 1.5.1.4Copyright (c) 2008-2010 y-soft. All rights reserved
    ANALYZER: auCDtect: CD records authenticity detector, version 0.8.2Copyright (c) 2004 Oleg Berngardt. All rights reserved.Copyright (c) 2004 Alexander Djourik. All rights reserved.
    FILE: 05 - Symphonie Nr. 7 - Allegro moderato, ma energico.flac Size: 93728821 Hash: 7040BD65A4C0D8ECCC768E017B7A5855 Accuracy: -m0 Conclusion: CDDA 99% Signature: D7BC61A417BF67976AE42A7E2CC8CDC65A0F6410FILE: 04 - Symphonie Nr. 7 - IV. Nachtmusik II. Andante amoroso.flac Size: 55755349 Hash: 9D574E0636173244E02FEC6C0993E2B3 Accuracy: -m0 Conclusion: CDDA 100% Signature: A6E3F4DC81BA7F5896F41D664356E01996520117FILE: 03 - Symphonie Nr. 7 - Fliessend, aber nicht schnell.flac Size: 44604539 Hash: 258047B1F01771CD8682DD25C3714912 Accuracy: -m0 Conclusion: CDDA 100% Signature: A0E1098B3F0483D75712AEAB70F95657EDA23445FILE: 02 - Symphonie Nr. 7 - II. Nachtmusik I. Allegro moderato.flac Size: 64193691 Hash: 76C570D6AA6C44A2A2E88020C34B210C Accuracy: -m0 Conclusion: CDDA 99% Signature: FB2913E30452584898202F24612733408FF95435FILE: 01 - Symphonie Nr. 7 - Allegro risoluto, ma non troppo.flac Size: 108575839 Hash: 4B686F28CFB7C61F328D07792E636CDC Accuracy: -m0 Conclusion: CDDA 99% Signature: 282F3E4C43F891ACDDCBEA01CF1FC5508528E27C

    CD 10: Symphonie Nr. 8

    -----------------------
    DON'T MODIFY THIS FILE
    -----------------------
    PERFORMER: auCDtect Task Manager, ver. 1.5.1RC3 build 1.5.1.4Copyright (c) 2008-2010 y-soft. All rights reserved
    ANALYZER: auCDtect: CD records authenticity detector, version 0.8.2Copyright (c) 2004 Oleg Berngardt. All rights reserved.Copyright (c) 2004 Alexander Djourik. All rights reserved.
    FILE: 21 - Symphonie Nr. 8 - Alles vergaengliche ist nur ein Gleichnis.flac Size: 25213215 Hash: 6D0DEF2C7476957B9CBCA70EDF20F84C Accuracy: -m0 Conclusion: CDDA 100% Signature: 99FD92D632DAFDDAD4F24C64DE72181A6262C244FILE: 20 - Symphonie Nr. 8 - Blicket auf zu Retterblick.flac Size: 25895241 Hash: 3A88914A35DC27901755C7C5B0118996 Accuracy: -m0 Conclusion: CDDA 99% Signature: 124AC64625FBA0C47B33D513ECC60B8DA340A6FAFILE: 19 - Symphonie Nr. 8 - Er ueberwaechst uns schon.flac Size: 19019004 Hash: 1CF4BEC59D50CC24388232E4349833E5 Accuracy: -m0 Conclusion: CDDA 100% Signature: DB97E95B2DFB3C102FE3FDD4E0431B82019C4F37FILE: 18 - Symphonie Nr. 8 - Bei der Liebe.flac Size: 25074764 Hash: 417D74DAC1030205239B975E91CD790B Accuracy: -m0 Conclusion: CDDA 99% Signature: 0E5530BD1A5616C1D2511E7B1B429B45F0442A1AFILE: 17 - Symphonie Nr. 8 - Dir, der Unberuehrbaren.flac Size: 14827341 Hash: 1BC53E4F9077BCCAE0657EC93D51228C Accuracy: -m0 Conclusion: CDDA 100% Signature: 3254215A88D4E45F77C9AADCD237C787DBB5EB70FILE: 16 - Symphonie Nr. 8 - Ich spuer' soeben.flac Size: 25850384 Hash: 2D18D666A6BC5149BC9EC165142CA88D Accuracy: -m0 Conclusion: CDDA 100% Signature: 76CF858E72C67A91110FB8FE961DCDA4BA7EC401FILE: 15 - Symphonie Nr. 8 - Uns bleibt ein Erdenrest.flac Size: 7182756 Hash: E2B2D4E7989E54071EC0239DBBB23DD1 Accuracy: -m0 Conclusion: CDDA 100% Signature: E3577D476B42D8E8670C24D001889F2A5AE61D26FILE: 14 - Symphonie Nr. 8 - Jene Rosen.flac Size: 9940741 Hash: 9FDEBB00D246ABF6EA9A3B510578591A Accuracy: -m0 Conclusion: CDDA 100% Signature: 5202D60A5C382A5900EDC7B329B61741814EF81DFILE: 13 - Symphonie Nr. 8 - Gerettet sei das edle Glied.flac Size: 5417940 Hash: 665F3A285EF25A9FCE24246DF11FC91B Accuracy: -m0 Conclusion: CDDA 99% Signature: 4D40A5FBCAE3359CC511BA417509A785285948ACFILE: 12 - Symphonie Nr. 8 - Wie Felsenabgrund mir zu Fuessen.flac Size: 23040828 Hash: E8C037BCEBC0783D381594E185CD683B Accuracy: -m0 Conclusion: CDDA 100% Signature: E83ACC114D6E440586738BE5A439D8D6C0446143FILE: 11 - Symphonie Nr. 8 - Ewiger Wonnebrand.flac Size: 6548038 Hash: 3063BBC770313FF00BF2D84EA1E99B10 Accuracy: -m0 Conclusion: CDDA 100% Signature: 57DD3486CCBCE04BDB1AC4D1F422592C54FF02C4FILE: 10 - Symphonie Nr. 8 - Waldung, sie schwankt heran.flac Size: 11633125 Hash: B76516567CEF00E007A3D22829A4CD25 Accuracy: -m0 Conclusion: CDDA 100% Signature: E96BB44D2D485DFC863AC28646534807FC4094FCFILE: 09 - Symphonie Nr. 8 - Piu mosso (Allegro moderato).flac Size: 14692347 Hash: 7575C23210E50E57F7ABA6386359A74E Accuracy: -m0 Conclusion: CDDA 100% Signature: E1CE63E649B36400A5D8A1E103D5E7D72E0AF2E4FILE: 08 - Symphonie Nr. 8 - II. Slussszene aus Goethes Faust. Poco adagio.flac Size: 19476435 Hash: 5C6C4F4BEA90A0402A353718AC3130BC Accuracy: -m0 Conclusion: CDDA 100% Signature: B3E34D5DF4765708F749E693D30BF1539C13C8CDFILE: 07 - Symphonie Nr. 8 - Gloria sit Patri Domino.flac Size: 18376225 Hash: 1ECDC0C4AEE4FC73669BDDDED31499A6 Accuracy: -m0 Conclusion: CDDA 100% Signature: C1716BFC39C15795B95A73B5A15719711F11AA84FILE: 06 - Symphonie Nr. 8 - Qui Paraclitus diceris.flac Size: 11325321 Hash: BB4165F8957A3F31C60563F3FC8CD0B7 Accuracy: -m0 Conclusion: CDDA 100% Signature: 8054F49582AD292B622BDDAD3F7607B9F1015C03FILE: 05 - Symphonie Nr. 8 - Accende lumen sensibus.flac Size: 31479998 Hash: 61AE9C187564D07B3EB0E731FE7723BB Accuracy: -m0 Conclusion: CDDA 100% Signature: A9ECB5E16B741EC6C253CEB34383E7FC78065888FILE: 04 - Symphonie Nr. 8 - Sehr fliessend.flac Size: 11943012 Hash: 6EA41DFEDB6BEAAA168A4BD87F1FB93B Accuracy: -m0 Conclusion: CDDA 99% Signature: 9E7931BF71CC755E7D38A329E778DDACDFD9E4E8FILE: 03 - Symphonie Nr. 8 - Infirma nostri corporis.flac Size: 15342727 Hash: 89D0CF61666BC319D10063EB21A54F3E Accuracy: -m0 Conclusion: CDDA 100% Signature: C5292B95BC7CDC5929328471E3B58427E64345D3FILE: 02 - Symphonie Nr. 8 - Imple superna gratia.flac Size: 13789213 Hash: 1ED3BD5CF4B5D6DBA543C2D20AF39970 Accuracy: -m0 Conclusion: CDDA 100% Signature: 99CC8C27A340774379FB5167AAE2FE241C42CAD0FILE: 01 - Symphonie Nr. 8 - I. Veni, Creator Spiritus!.flac Size: 7119829 Hash: AA93F23DD80385BC6E8B3B8AECD283B6 Accuracy: -m0 Conclusion: CDDA 100% Signature: 9EF214FE607A302C18AB7E8C2B28BF8703A06293

    CUETools logs / Отчёты CUEToolsCD 1: Symphonie Nr. 1 • Symphonie Nr. 2 (1)

    [CUETools log; Date: 10.01.2016 13:36:07; Version: 2.1.4]Pregap length 00:00:33.[AccurateRip ID: 000d2c8d-003ef862-37110b05] found.Track [ CRC | V2 ] Status 01 [6fe28794|c53c682f] (17+16/52) Accurately ripped 02 [db5a0d99|a60833e2] (17+16/52) Accurately ripped 03 [2fca5e89|30ae8eec] (17+15/51) Accurately ripped 04 [f7c50db9|19eff5c6] (19+16/54) Accurately ripped 05 [21aecbf6|3611d059] (19+17/56) Accurately rippedOffsetted by -462: 01 [3169e911] (05/52) Accurately ripped 02 [667028b8] (05/52) Accurately ripped 03 [9f55609b] (05/51) Accurately ripped 04 [1bbffda7] (05/54) Accurately ripped 05 [651ac429] (06/56) Accurately rippedOffsetted by -667: 01 [8790a1b5] (00/52) No match (V2 was not tested) 02 [e8800942] (00/52) No match (V2 was not tested) 03 [9ee78e8a] (00/51) No match (V2 was not tested) 04 [3fd9992e] (00/54) No match (V2 was not tested) 05 [4aa23f87] (00/56) No match (V2 was not tested)
    Track Peak [ CRC32 ] [W/O NULL] [ LOG ] -- 98,5 [409B1E2D] [59086403] 01 93,7 [F156D244] [656BAA80] CRC32 02 81,3 [B229CB12] [5FEFA607] CRC32 03 55,0 [32FD47F2] [B62BE57C] CRC32 04 91,9 [703486BC] [C99A86CA] CRC32 05 98,5 [23105656] [FDE6FE48] CRC32

    CD 2: Symphonie Nr. 2 (2-5)

    [CUETools log; Date: 10.01.2016 13:36:21; Version: 2.1.4]Pregap length 00:00:33.[AccurateRip ID: 0014f946-00872ec5-5c0e7f08] found.Track [ CRC | V2 ] Status 01 [dd0ac184|0e4857d3] (15+18/64) Accurately ripped 02 [39595d05|3dc42e98] (16+18/64) Accurately ripped 03 [4ec975ef|06a1d0d6] (16+18/63) Accurately ripped 04 [ef2629dd|c06557d0] (16+18/62) Accurately ripped 05 [c2bed3a1|d2d189cf] (15+18/64) Accurately ripped 06 [6a791b7a|3d0bba23] (17+18/66) Accurately ripped 07 [2591abce|ac6c65f4] (16+18/64) Accurately ripped 08 [ac2ffc9e|ec786752] (16+18/65) Accurately rippedOffsetted by -907: 01 [ab2aa37a] (06/64) Accurately ripped 02 [e8cd92f1] (06/64) Accurately ripped 03 [b7e9701e] (05/63) Accurately ripped 04 [4edb867d] (05/62) Accurately ripped 05 [425d22e0] (06/64) Accurately ripped 06 [ee753545] (06/66) Accurately ripped 07 [9408279a] (05/64) Accurately ripped 08 [899fd89f] (06/65) Accurately rippedOffsetted by -669: 01 [2614cc08] (00/64) No match (V2 was not tested) 02 [4a61e19c] (00/64) No match (V2 was not tested) 03 [efb16f57] (00/63) No match (V2 was not tested) 04 [ea15f234] (00/62) No match (V2 was not tested) 05 [d1329424] (00/64) No match (V2 was not tested) 06 [7add3615] (00/66) No match (V2 was not tested) 07 [97232fbb] (00/64) No match (V2 was not tested) 08 [67b291cf] (00/65) No match (V2 was not tested)
    Track Peak [ CRC32 ] [W/O NULL] [ LOG ] -- 100,0 [F36B2CED] [91FBC37D] 01 54,6 [30384E02] [CA3A3F52] CRC32 02 94,3 [6883F440] [8448CB10] CRC32 03 25,2 [2D465A4C] [541F6921] CRC32 04 91,0 [AE17B35D] [BE657756] CRC32 05 100,0 [D3D058DF] [7ABC2441] CRC32 06 7,5 [61A4F383] [DF592F32] CRC32 07 27,5 [9438C02F] [CA71B4CD] CRC32 08 98,6 [758EBF31] [6E41E112] CRC32

    CD 3: Symphonie Nr. 3 (1-5)

    [CUETools log; Date: 10.01.2016 13:36:37; Version: 2.1.4]Pregap length 00:00:32.[AccurateRip ID: 0012e352-0052ceea-4210f505] found.Track [ CRC | V2 ] Status 01 [efcc4ec4|d7edf9fb] (17+18/39) Accurately ripped 02 [fa50f55b|0a71ad78] (17+18/39) Accurately ripped 03 [316c57bf|60b9bd50] (17+17/38) Accurately ripped 04 [c34cdb12|ffad8bb3] (16+17/37) Accurately ripped 05 [a4ad72d7|60d91d89] (15+17/38) Accurately rippedOffsetted by -664: 01 [97314bd0] (00/39) No match (V2 was not tested) 02 [56223c92] (00/39) No match (V2 was not tested) 03 [229d18c9] (00/38) No match (V2 was not tested) 04 [5350d87a] (00/37) No match (V2 was not tested) 05 [64d3a766] (00/38) No match (V2 was not tested)
    Track Peak [ CRC32 ] [W/O NULL] [ LOG ] -- 95,2 [A9CA6BCB] [6B6544AE] 01 95,2 [86A91AC9] [F70B2094] CRC32 02 35,7 [51A1C20B] [A0D0703B] CRC32 03 74,7 [DEDB5883] [15523DDE] CRC32 04 22,2 [86A4635A] [DCEBDF4B] CRC32 05 55,7 [9DF96050] [4CCA2131] CRC32

    CD 4: Symphonie Nr. 3 (6) • Symphonie Nr. 4

    [CUETools log; Date: 10.01.2016 13:36:53; Version: 2.1.4]Pregap length 00:00:33.[AccurateRip ID: 00113dc3-004e42bd-3311c205] found.Track [ CRC | V2 ] Status 01 [1d860979|b4a270ff] (17+18/55) Accurately ripped 02 [23f4bb5d|a7e6cb05] (17+17/55) Accurately ripped 03 [44822255|87deaed1] (17+17/55) Accurately ripped 04 [38d89093|f3f5ec04] (16+17/54) Accurately ripped 05 [fb3cf0a4|752f0c4f] (17+17/53) Accurately rippedOffsetted by -363: 01 [e75abc36] (06/55) Accurately ripped 02 [c3246aef] (05/55) Accurately ripped 03 [2722fdf1] (05/55) Accurately ripped 04 [ff3a4fb3] (05/54) Accurately ripped 05 [3a2597db] (04/53) Accurately rippedOffsetted by -667: 01 [9f311ea0] (00/55) No match (V2 was not tested) 02 [fe5f6f9f] (02/55) Accurately ripped 03 [530d031b] (02/55) Accurately ripped 04 [ed38d043] (02/54) Accurately ripped 05 [4e9a3dbb] (02/53) Accurately ripped
    Track Peak [ CRC32 ] [W/O NULL] [ LOG ] -- 97,7 [C51A63D4] [34B16818] 01 97,7 [0E1EC2C9] [A0878F37] CRC32 02 96,4 [9E78633D] [40D0007C] CRC32 03 31,9 [2B8EDF24] [9489BEFF] CRC32 04 87,0 [62D90AA1] [CA02F982] CRC32 05 52,3 [BAF59E42] [673969FB] CRC32

    CD 5: Symphonie Nr. 5

    [CUETools log; Date: 10.01.2016 13:37:19; Version: 2.1.4]Pregap length 00:00:33.[AccurateRip ID: 000e6607-00439d40-4310a405] found.Track [ CRC | V2 ] Status 01 [6bb72d64|1e0858f2] (18+21/58) Accurately ripped 02 [8b6e3e01|d301c072] (18+21/56) Accurately ripped 03 [db77d898|3e478874] (19+21/57) Accurately ripped 04 [5d3ee15d|cc675507] (19+20/56) Accurately ripped 05 [9f026b27|b12003bd] (18+20/55) Accurately rippedOffsetted by -554: 01 [e7451d8b] (06/58) Accurately ripped 02 [1e0577f5] (05/56) Accurately ripped 03 [3779b9ab] (05/57) Accurately ripped 04 [6d75bf01] (05/56) Accurately ripped 05 [5054cc7b] (05/55) Accurately rippedOffsetted by -664: 01 [9ed8caf2] (00/58) No match (V2 was not tested) 02 [bef74ea8] (00/56) No match (V2 was not tested) 03 [ee23d52a] (00/57) No match (V2 was not tested) 04 [698de446] (00/56) No match (V2 was not tested) 05 [c6ea88a3] (00/55) No match (V2 was not tested)
    Track Peak [ CRC32 ] [W/O NULL] [ LOG ] -- 100,0 [0554D567] [079A85F1] 01 74,0 [66939435] [99C2D1AF] CRC32 02 91,6 [77BFF24A] [106EA09C] CRC32 03 100,0 [BE87A6C1] [A1A852A3] CRC32 04 44,4 [193F191A] [CC31B9EF] CRC32 05 100,0 [EBEB8841] [D9C25FC5] CRC32

    CD 6: Symphonie Nr. 10 (Adadio) • Symphonie Nr. 6 (1-3)

    [CUETools log; Date: 10.01.2016 13:37:34; Version: 2.1.4]Pregap length 00:00:32.[AccurateRip ID: 000e3c92-00378e94-3011c604] found.Track [ CRC | V2 ] Status 01 [7b19b23b|e4a9b174] (12+12/35) Accurately ripped 02 [600f08b1|9d6a90d4] (12+13/37) Accurately ripped 03 [761bb5f7|6c3f3477] (12+13/37) Accurately ripped 04 [ed2baaa1|1bc7558e] (12+13/37) Accurately rippedOffsetted by 1805: 01 [7230c78d] (03/35) Accurately ripped 02 [70f39b6b] (04/37) Accurately ripped 03 [9ab1b1a3] (04/37) Accurately ripped 04 [5528501d] (04/37) Accurately ripped
    Track Peak [ CRC32 ] [W/O NULL] [ LOG ] -- 93,4 [DD9BEE22] [9E26D7F5] 01 68,5 [5FCF87F7] [5759478F] CRC32 02 93,4 [E30FFC9E] [18CEEB3E] CRC32 03 69,1 [89AA8BA8] [CF263E9B] CRC32 04 70,0 [7662AAF5] [16C5CE68] CRC32

    CD 7: Symphonie Nr. 6 (4) • Symphonie Nr. 9 (1, 2)

    [CUETools log; Date: 10.01.2016 13:37:49; Version: 2.1.4]Pregap length 00:00:33.[AccurateRip ID: 000af197-0023c8f5-22110f03] found.Track [ CRC | V2 ] Status 01 [49018f3a|dedfe0fb] (13+14/54) Accurately ripped 02 [ebf46e15|2dbff385] (12+13/52) Accurately ripped 03 [b7291c12|1e51408e] (13+13/53) Accurately rippedOffsetted by -900: 01 [813c3fbb] (05/54) Accurately ripped 02 [9e152642] (05/52) Accurately ripped 03 [3c31ca5c] (04/53) Accurately rippedOffsetted by -669: 01 [49f229c5] (04/54) Accurately ripped 02 [4913d72b] (03/52) Accurately ripped 03 [1a746364] (03/53) Accurately ripped
    Track Peak [ CRC32 ] [W/O NULL] [ LOG ] -- 97,7 [1C8F4A7A] [7E9C65B3] 01 97,7 [CAD2044D] [B7CB9965] CRC32 02 95,8 [6F878FB0] [018B856E] CRC32 03 83,9 [3B82DD1A] [42099BE1] CRC32

    CD 8: Symphonie Nr. 9 (3, 4)

    [CUETools log; Date: 10.01.2016 13:37:57; Version: 2.1.4]Pregap length 00:00:33.[AccurateRip ID: 00037d5b-00099249-1608d902] found.Track [ CRC | V2 ] Status 01 [c7733dae|38514ebf] (16+17/51) Accurately ripped 02 [ea69c6d6|dcf1d85e] (16+17/51) Accurately rippedOffsetted by -1333: 01 [9b04570c] (04/51) Accurately ripped 02 [ba83be67] (04/51) Accurately rippedOffsetted by -669: 01 [c6e6ed32] (00/51) No match (V2 was not tested) 02 [b225ac59] (00/51) No match (V2 was not tested)Offsetted by -562: 01 [c3960ab3] (00/51) No match (V2 was not tested) 02 [05d2dc6b] (00/51) No match (V2 was not tested)
    Track Peak [ CRC32 ] [W/O NULL] [ LOG ] -- 92,8 [A6DB5172] [11BDA5BB] 01 92,8 [0DB2A996] [0EC705C3] CRC32 02 91,9 [000E35BC] [583A2328] CRC32

    CD 9: Symphonie Nr. 7

    [CUETools log; Date: 10.01.2016 13:38:14; Version: 2.1.4]Pregap length 00:00:33.[AccurateRip ID: 00103349-0049ed75-3d11d205] found.Track [ CRC | V2 ] Status 01 [298bccae|b2f98cb5] (16+17/51) Accurately ripped 02 [cd9fcad6|5ac46d13] (16+17/52) Accurately ripped 03 [637427ec|b92e3dee] (16+17/52) Accurately ripped 04 [d7b8ce53|a6367cc8] (16+17/51) Accurately ripped 05 [59825a6b|0a71f4a6] (14+17/47) Accurately rippedOffsetted by -691: 01 [ef85f6fc] (05/51) Accurately ripped 02 [ad922d05] (06/52) Accurately ripped 03 [6df2099a] (06/52) Accurately ripped 04 [9a4394a3] (05/51) Accurately ripped 05 [ae76ef13] (03/47) Accurately rippedOffsetted by -669: 01 [c45163b6] (00/51) No match (V2 was not tested) 02 [fde9fc31] (00/52) No match (V2 was not tested) 03 [9a02499e] (00/52) No match (V2 was not tested) 04 [52b4160b] (00/51) No match (V2 was not tested) 05 [3e3b9317] (00/47) No match (V2 was not tested)
    Track Peak [ CRC32 ] [W/O NULL] [ LOG ] -- 99,9 [5BA5EE66] [BD852224] 01 82,5 [7D610612] [B8BB3E5D] CRC32 02 53,1 [503104E8] [71F56C51] CRC32 03 48,2 [ADCC0DBF] [23E35255] CRC32 04 47,0 [FE4B8BEA] [7983885C] CRC32 05 99,9 [39CE1158] [39C3375C] CRC32

    CD 10: Symphonie Nr. 8

    [CUETools log; Date: 10.01.2016 13:38:44; Version: 2.1.4]Pregap length 00:00:32.[AccurateRip ID: 0033ec4d-03279d7c-3511bc15] found.Track [ CRC | V2 ] Status 01 [b5fd1f40|18132278] (25+29/68) Accurately ripped 02 [9ab52926|7fa803bd] (25+29/69) Accurately ripped 03 [e3b7a371|f725b3f7] (25+29/69) Accurately ripped 04 [386d060c|224ea835] (25+29/69) Accurately ripped 05 [21a1a8aa|20996370] (25+29/69) Accurately ripped 06 [09b34fbb|c890091d] (25+29/69) Accurately ripped 07 [fca8f6d4|aa6f5c94] (24+29/68) Accurately ripped 08 [c4364eb4|7a34181e] (24+29/68) Accurately ripped 09 [6d09bdd3|4f9fd7b5] (24+29/68) Accurately ripped 10 [84c0b9db|a5305999] (25+29/69) Accurately ripped 11 [28f86dd9|9bda6b26] (25+29/69) Accurately ripped 12 [5561ef60|f278795b] (25+29/69) Accurately ripped 13 [0d3bf756|80863287] (25+29/69) Accurately ripped 14 [8c032e85|081afe0e] (25+29/69) Accurately ripped 15 [e441136c|e3005370] (25+29/69) Accurately ripped 16 [a49518bb|fb0ae6cd] (25+29/67) Accurately ripped 17 [13a7c8ff|5a865ead] (25+29/67) Accurately ripped 18 [6ab94db2|7cc642b2] (24+29/66) Accurately ripped 19 [4a79899e|52cc8ddc] (25+29/67) Accurately ripped 20 [e1dc64a2|050df37e] (25+29/67) Accurately ripped 21 [ce1a9187|0d9e6e84] (25+30/66) Accurately rippedOffsetted by -1328: 01 [9172d384] (02/68) Accurately ripped 02 [bfaec220] (02/69) Accurately ripped 03 [500a3524] (02/69) Accurately ripped 04 [eadb35f1] (02/69) Accurately ripped 05 [69acb684] (02/69) Accurately ripped 06 [acc3fa91] (02/69) Accurately ripped 07 [5b15b26c] (02/68) Accurately ripped 08 [2ae63ebb] (02/68) Accurately ripped 09 [fe4230f4] (02/68) Accurately ripped 10 [08864a60] (02/69) Accurately ripped 11 [1f3d8e32] (02/69) Accurately ripped 12 [638a4e5c] (02/69) Accurately ripped 13 [73e47690] (02/69) Accurately ripped 14 [ea33522e] (02/69) Accurately ripped 15 [7380d477] (02/69) Accurately ripped 16 [74b763a0] (02/67) Accurately ripped 17 [6e84be8a] (02/67) Accurately ripped 18 [45bd54e7] (02/66) Accurately ripped 19 [82b33de1] (02/67) Accurately ripped 20 [343e9421] (02/67) Accurately ripped 21 [513ad89e] (02/66) Accurately rippedOffsetted by -664: 01 [a2de7f69] (00/68) No match (V2 was not tested) 02 [bdc1c228] (00/69) No match (V2 was not tested) 03 [d61c6356] (00/69) No match (V2 was not tested) 04 [5609d99a] (00/69) No match (V2 was not tested) 05 [502ed1aa] (00/69) No match (V2 was not tested) 06 [19e3968e] (00/69) No match (V2 was not tested) 07 [2ae48473] (00/68) No match (V2 was not tested) 08 [0b899507] (00/68) No match (V2 was not tested) 09 [2a82b420] (00/68) No match (V2 was not tested) 10 [25aeedd7] (00/69) No match (V2 was not tested) 11 [6f4c29bd] (00/69) No match (V2 was not tested) 12 [dabfb098] (00/69) No match (V2 was not tested) 13 [c7e73fd4] (00/69) No match (V2 was not tested) 14 [c4e8fcb6] (00/69) No match (V2 was not tested) 15 [0ce39ecc] (00/69) No match (V2 was not tested) 16 [ceb8b19f] (00/67) No match (V2 was not tested) 17 [62054bc7] (00/67) No match (V2 was not tested) 18 [1faf17fb] (00/66) No match (V2 was not tested) 19 [64caa27d] (00/67) No match (V2 was not tested) 20 [c9cfded7] (00/67) No match (V2 was not tested) 21 [7adaab77] (00/66) No match (V2 was not tested)Offsetted by -197: 01 [5ebe1545] (00/68) No match (V2 was not tested) 02 [b708a305] (00/69) No match (V2 was not tested) 03 [eca2e139] (00/69) No match (V2 was not tested) 04 [0717ebe6] (00/69) No match (V2 was not tested) 05 [74d17cd3] (00/69) No match (V2 was not tested) 06 [151fe11f] (00/69) No match (V2 was not tested) 07 [101accd1] (00/68) No match (V2 was not tested) 08 [5c8e1b58] (00/68) No match (V2 was not tested) 09 [d21e8d4d] (00/68) No match (V2 was not tested) 10 [b2c378b7] (00/69) No match (V2 was not tested) 11 [dd1ac06e] (00/69) No match (V2 was not tested) 12 [c8a0a05a] (00/69) No match (V2 was not tested) 13 [7affb71d] (00/69) No match (V2 was not tested) 14 [72c4591d] (00/69) No match (V2 was not tested) 15 [d11ae010] (00/69) No match (V2 was not tested) 16 [a0840c7d] (00/67) No match (V2 was not tested) 17 [f2a3a1e7] (00/67) No match (V2 was not tested) 18 [096605ac] (00/66) No match (V2 was not tested) 19 [72135d93] (00/67) No match (V2 was not tested) 20 [2d15c863] (00/67) No match (V2 was not tested) 21 [bffbc959] (00/66) No match (V2 was not tested)Offsetted by -11: 01 [5e60701a] (04/68) Accurately ripped 02 [b75147ea] (05/69) Accurately ripped 03 [07d8f561] (05/69) Accurately ripped 04 [961c7b7f] (05/69) Accurately ripped 05 [9db4e76a] (05/69) Accurately ripped 06 [d1da91ec] (05/69) Accurately ripped 07 [8e2ac1b7] (05/68) Accurately ripped 08 [94b13b83] (05/68) Accurately ripped 09 [9e30af1c] (05/68) Accurately ripped 10 [3ecd3e96] (05/69) Accurately ripped 11 [302bd8a0] (05/69) Accurately ripped 12 [767fbe66] (05/69) Accurately ripped 13 [2359d2f9] (05/69) Accurately ripped 14 [d86ce2d4] (05/69) Accurately ripped 15 [4a2026c2] (05/69) Accurately ripped 16 [214e9678] (05/67) Accurately ripped 17 [c24fdb10] (05/67) Accurately ripped 18 [e67551c4] (05/66) Accurately ripped 19 [c62239b7] (05/67) Accurately ripped 20 [5887fb2b] (05/67) Accurately ripped 21 [58e60f74] (00/66) No match (V2 was not tested)
    Track Peak [ CRC32 ] [W/O NULL] [ LOG ] -- 99,8 [389EC005] [05A7EA3A] 01 50,8 [B8705039] [BA825744] CRC32 02 57,3 [CF35330B] [F440235B] CRC32 03 50,9 [A8B03B84] [3BDCBC73] CRC32 04 29,3 [5CAEDBDD] [5D76263D] CRC32 05 85,4 [FBEB1717] [602B60B5] CRC32 06 69,6 [CF1A1492] [CF604A85] CRC32 07 95,3 [BE9FFBE1] [529B3D21] CRC32 08 35,2 [AEB53134] [E8611843] CRC32 09 49,7 [EBA0245F] [FD9C8A7E] CRC32 10 8,4 [0D5B5F28] [220FB16E] CRC32 11 31,8 [A0D41FB0] [0A6C3F95] CRC32 12 48,1 [CAB64ECC] [0399872C] CRC32 13 52,9 [DE4758FB] [166D2BE5] CRC32 14 55,1 [E1AC4734] [BF79ADA5] CRC32 15 15,6 [C0BEA376] [64934645] CRC32 16 44,5 [45113A32] [3AF378F4] CRC32 17 51,0 [B5AB85C3] [6C45DBC3] CRC32 18 73,2 [EF96DB9E] [CA9E8303] CRC32 19 60,6 [4EF1F29D] [6ADAA1E9] CRC32 20 82,1 [80515ADB] [19DAF4A2] CRC32 21 99,8 [01BA8B15] [7D7F73B1] CRC32

    CUE sheetsCD 1: Symphonie Nr. 1 • Symphonie Nr. 2 (1)

    TITLE "Gustav Mahler: Symphonien"PERFORMER "Bernard Haitink"REM GENRE ClassicalREM DISCID 37110B05REM COMMENT "ExactAudioCopy v1.0b3"CATALOG 0028944205121FILE "01 - Symphonie Nr. 1 - I. Langsam. Schleppend. Wie ein Naturlaut. - Sehr gemaechlich.flac" WAVE TRACK 01 AUDIO TITLE "Symphonie Nr. 1 D-dur: I. Langsam. Schleppend. Wie ein Naturlaut. — Sehr gemächlich" PERFORMER "Concertgebouworkest. Bernard Haitink, conductor" REM DATE 1962 PREGAP 00:00:33 INDEX 01 00:00:00 TRACK 02 AUDIO TITLE "Symphonie Nr. 1 D-dur: II. Kräftig bewegt, doch nicht zu schnell. — Recht gemächlich" PERFORMER "Concertgebouworkest. Bernard Haitink, conductor" REM DATE 1962 INDEX 00 13:23:00FILE "02 - Symphonie Nr. 1 - II. Kraeftig bewegt, doch nicht zu schnell. - Recht gemaechlich.flac" WAVE INDEX 01 00:00:00FILE "03 - Symphonie Nr. 1 - III. Feierlich und gemessen, ohne zu schleppen.flac" WAVE TRACK 03 AUDIO TITLE "Symphonie Nr. 1 D-dur: III. Feierlich und gemessen, ohne zu schleppen" PERFORMER "Concertgebouworkest. Bernard Haitink, conductor" REM DATE 1962 INDEX 01 00:00:00 TRACK 04 AUDIO TITLE "Symphonie Nr. 1 D-dur: IV. Stürmisch bewegt" PERFORMER "Concertgebouworkest. Bernard Haitink, conductor" REM DATE 1962 INDEX 00 10:55:00FILE "04 - Symphonie Nr. 1 - IV. Stuermisch bewegt.flac" WAVE INDEX 01 00:00:00 TRACK 05 AUDIO TITLE "Symphonie Nr. 2 c-moll: I. Allegro maestoso" PERFORMER "Concertgebouworkest. Bernard Haitink, conductor" REM DATE 1968 INDEX 00 20:01:00FILE "05 - Symphonie Nr. 2 - I. Allegro maestoso.flac" WAVE INDEX 01 00:00:00

    CD 2: Symphonie Nr. 2 (2-5)

    TITLE "Gustav Mahler: Symphonien"PERFORMER "Bernard Haitink"REM GENRE ClassicalREM DISCID 5C0E7F08REM COMMENT "ExactAudioCopy v1.0b3"CATALOG 0028944205220FILE "01 - Symphonie Nr. 2 - II. Andante moderato.flac" WAVE TRACK 01 AUDIO TITLE "Symphonie Nr. 2 c-moll: II. Andante moderato" PERFORMER "Concertgebouworkest. Bernard Haitink, conductor" REM DATE 1968 PREGAP 00:00:33 INDEX 01 00:00:00 TRACK 02 AUDIO TITLE "Symphonie Nr. 2 c-moll: III. Scherzo: In ruhig fließender Bewegung" PERFORMER "Concertgebouworkest. Bernard Haitink, conductor" REM DATE 1968 INDEX 00 10:56:00FILE "02 - Symphonie Nr. 2 - III. Scherzo. In ruhig fliessender Bewegung.flac" WAVE INDEX 01 00:00:00FILE "03 - Symphonie Nr. 2 - IV. Urlicht. Sehr feierlich, aber schlicht.flac" WAVE TRACK 03 AUDIO TITLE "Symphonie Nr. 2 c-moll: IV. Urlicht: Sehr feierlich, aber schlicht" PERFORMER "Aafje Heynis, Concertgebouworkest. Bernard Haitink, conductor" REM DATE 1968 INDEX 01 00:00:00FILE "04 - Symphonie Nr. 2 - V. Im Tempo des Scherzos. Wild herausfahrend.flac" WAVE TRACK 04 AUDIO TITLE "Symphonie Nr. 2 c-moll: V. Im Tempo des Scherzos. Wild herausfahrend" PERFORMER "Concertgebouworkest. Bernard Haitink, conductor" REM DATE 1968 INDEX 01 00:00:00FILE "05 - Symphonie Nr. 2 - Maestoso.flac" WAVE TRACK 05 AUDIO TITLE "Symphonie Nr. 2 c-moll: Maestoso" PERFORMER "Concertgebouworkest. Bernard Haitink, conductor" REM DATE 1968 INDEX 01 00:00:00FILE "06 - Symphonie Nr. 2 - Sehr langsam und gedehnt.flac" WAVE TRACK 06 AUDIO TITLE "Symphonie Nr. 2 c-moll: Sehr langsam und gedehnt" PERFORMER "Concertgebouworkest. Bernard Haitink, conductor" REM DATE 1968 INDEX 01 00:00:00 TRACK 07 AUDIO TITLE "Symphonie Nr. 2 c-moll: Langsam. Misterioso" PERFORMER "Elly Ameling, Groot Omroepkoor, Concertgebouworkest. Bernard Haitink, conductor" REM DATE 1968 INDEX 00 02:17:00FILE "07 - Symphonie Nr. 2 - Langsam. Misterioso.flac" WAVE INDEX 01 00:00:00FILE "08 - Symphonie Nr. 2 - Etwas bewegter.flac" WAVE TRACK 08 AUDIO TITLE "Symphonie Nr. 2 c-moll: Etwas bewegter" PERFORMER "Elly Ameling, Aafje Heynis, Groot Omroepkoor, Concertgebouworkest. Bernard Haitink, conductor" REM DATE 1968 INDEX 01 00:00:00

    CD 3: Symphonie Nr. 3 (1-5)

    TITLE "Gustav Mahler: Symphonien"PERFORMER "Bernard Haitink"REM GENRE ClassicalREM DISCID 4210F505REM COMMENT "ExactAudioCopy v1.0b3"CATALOG 0028944205329FILE "01 - Symphonie Nr. 3 - I. Kraeftig. Entschieden.flac" WAVE TRACK 01 AUDIO TITLE "Symphonie Nr. 3 d-moll: I. Kräftig. Entschieden" PERFORMER "Concertgebouworkest. Bernard Haitink, conductor" REM DATE 1966 PREGAP 00:00:32 INDEX 01 00:00:00 TRACK 02 AUDIO TITLE "Symphonie Nr. 3 d-moll: II. Tempo di Menuetto. Sehr mäßig" PERFORMER "Concertgebouworkest. Bernard Haitink, conductor" REM DATE 1966 INDEX 00 32:11:00FILE "02 - Symphonie Nr. 3 - II. Tempo di Menuetto. Sehr maessig.flac" WAVE INDEX 01 00:00:00 TRACK 03 AUDIO TITLE "Symphonie Nr. 3 d-moll: III. Comodo. Scherzando. Ohne Hast" PERFORMER "Concertgebouworkest. Bernard Haitink, conductor" REM DATE 1966 INDEX 00 10:17:00FILE "03 - Symphonie Nr. 3 - III. Comodo. Scherzando. Ohne Hast.flac" WAVE INDEX 01 00:00:00 TRACK 04 AUDIO TITLE "Symphonie Nr. 3 d-moll: IV. Sehr langsam. Misterioso" PERFORMER "Maureen Forrester, Concertgebouworkest. Bernard Haitink, conductor" REM DATE 1966 INDEX 00 16:49:00FILE "04 - Symphonie Nr. 3 - IV. Sehr langsam. Misterioso.flac" WAVE INDEX 01 00:00:00FILE "05 - Symphonie Nr. 3 - V. Lustig im Tempo und Keck im Ausdruck.flac" WAVE TRACK 05 AUDIO TITLE "Symphonie Nr. 3 d-moll: V. Lustig im Tempo und Keck im Ausdruck" PERFORMER "Maureen Forrester, Jongenskoor St. Willibrord, De vrouwen van het Groot Omroepkoor, Concertgebouworkest. Bernard Haitink, conductor" REM DATE 1966 INDEX 01 00:00:00

    CD 4: Symphonie Nr. 3 (6) • Symphonie Nr. 4

    TITLE "Gustav Mahler: Symphonien"PERFORMER "Bernard Haitink"REM GENRE ClassicalREM DISCID 3311C205REM COMMENT "ExactAudioCopy v1.0b3"CATALOG 0028944205428FILE "01 - Symphonie Nr. 3 - VI. Langsam. Ruhevoll. Empfunden.flac" WAVE TRACK 01 AUDIO TITLE "Symphonie Nr. 3 d-moll: VI. Langsam. Ruhevoll. Empfunden" PERFORMER "Concertgebouworkest. Bernard Haitink, conductor" REM DATE 1966 PREGAP 00:00:33 INDEX 01 00:00:00 TRACK 02 AUDIO TITLE "Symphonie Nr. 4 G-dur: I. Bedächtig. Nicht eilen. — Recht gemächlich" PERFORMER "Concertgebouworkest. Bernard Haitink, conductor" REM DATE 1967 INDEX 00 22:02:00FILE "02 - Symphonie Nr. 4 - I. Bedaechtig. Nicht eilen. - Recht gemaechlich.flac" WAVE INDEX 01 00:00:00 TRACK 03 AUDIO TITLE "Symphonie Nr. 4 G-dur: II. In gemächlicher Bewegung. Ohne Hast" PERFORMER "Concertgebouworkest. Bernard Haitink, conductor" REM DATE 1967 INDEX 00 16:26:00FILE "03 - Symphonie Nr. 4 - II. In gemaechlicher Bewegung. Ohne Hast.flac" WAVE INDEX 01 00:00:00 TRACK 04 AUDIO TITLE "Symphonie Nr. 4 G-dur: III. Ruhevoll" PERFORMER "Concertgebouworkest. Bernard Haitink, conductor" REM DATE 1967 INDEX 00 08:37:00FILE "04 - Symphonie Nr. 4 - III. Ruhevoll.flac" WAVE INDEX 01 00:00:00 TRACK 05 AUDIO TITLE "Symphonie Nr. 4 G-dur: IV. Sehr behaglich" PERFORMER "Elly Ameling, Concertgebouworkest. Bernard Haitink, conductor" REM DATE 1967 INDEX 00 19:35:00FILE "05 - Symphonie Nr. 4 - IV. Sehr behaglich.flac" WAVE INDEX 01 00:00:00

    CD 5: Symphonie Nr. 5

    TITLE "Gustav Mahler: Symphonien"PERFORMER "Bernard Haitink"REM GENRE ClassicalREM DISCID 4310A405REM COMMENT "ExactAudioCopy v1.0b3"CATALOG 0028944205527FILE "01 - Symphonie Nr. 5 - I. Trauermarsch. In gemessenem Schritt. Streng. Wie ein Kondukt.flac" WAVE TRACK 01 AUDIO TITLE "Symphonie Nr. 5 cis-moll: I. Trauermarsch: In gemessenem Schritt. Streng. Wie ein Kondukt" PERFORMER "Concertgebouworkest. Bernard Haitink, conductor" REM DATE 1970 PREGAP 00:00:33 INDEX 01 00:00:00 TRACK 02 AUDIO TITLE "Symphonie Nr. 5 cis-moll: II. Stürmisch bewegt. Mit größter Vehemenz" PERFORMER "Concertgebouworkest. Bernard Haitink, conductor" REM DATE 1970 INDEX 00 12:19:00FILE "02 - Symphonie Nr. 5 - II. Stuermisch bewegt. Mit groesster Vehemenz.flac" WAVE INDEX 01 00:00:00 TRACK 03 AUDIO TITLE "Symphonie Nr. 5 cis-moll: III. Scherzo: Kräftig, nicht zu schnell" PERFORMER "Concertgebouworkest. Bernard Haitink, conductor" REM DATE 1970 INDEX 00 14:02:00FILE "03 - Symphonie Nr. 5 - III. Scherzo. Kraeftig, nicht zu schnell.flac" WAVE INDEX 01 00:00:00 TRACK 04 AUDIO TITLE "Symphonie Nr. 5 cis-moll: IV. Adagietto: Sehr langsam" PERFORMER "Concertgebouworkest. Bernard Haitink, conductor" REM DATE 1970 INDEX 00 17:58:00FILE "04 - Symphonie Nr. 5 - IV. Adagietto. Sehr langsam.flac" WAVE INDEX 01 00:00:00 TRACK 05 AUDIO TITLE "Symphonie Nr. 5 cis-moll: V. Rondo-Finale: Allegro. — Allegro giocoso. Frisch" PERFORMER "Concertgebouworkest. Bernard Haitink, conductor" REM DATE 1970 INDEX 00 10:34:00FILE "05 - Symphonie Nr. 5 - V. Rondo-Finale. Allegro. Allegro giocoso. Frisch.flac" WAVE INDEX 01 00:00:00

    CD 6: Symphonie Nr. 10 (Adadio) • Symphonie Nr. 6 (1-3)

    TITLE "Gustav Mahler: Symphonien"PERFORMER "Bernard Haitink"REM GENRE ClassicalREM DISCID 3011C604REM COMMENT "ExactAudioCopy v1.0b3"CATALOG 0028944205626FILE "01 - Symphonie Nr. 10 - Adagio.flac" WAVE TRACK 01 AUDIO TITLE "Symphonie Nr. 10 Fis-dur: Adagio: Andante. — Adagio" PERFORMER "Concertgebouworkest. Bernard Haitink, conductor" REM DATE 1971 PREGAP 00:00:32 INDEX 01 00:00:00 TRACK 02 AUDIO TITLE "Symphonie Nr. 6 a-moll: I. Allegro energico, ma non troppo" PERFORMER "Concertgebouworkest. Bernard Haitink, conductor" REM DATE 1969 INDEX 00 24:31:00FILE "02 - Symphonie Nr. 6 - I. Allegro energico, ma non troppo.flac" WAVE INDEX 01 00:00:00 TRACK 03 AUDIO TITLE "Symphonie Nr. 6 a-moll: II. Scherzo: Wuchtig" PERFORMER "Concertgebouworkest. Bernard Haitink, conductor" REM DATE 1969 INDEX 00 22:05:00FILE "03 - Symphonie Nr. 6 - II. Scherzo. Wuchtig.flac" WAVE INDEX 01 00:00:00 TRACK 04 AUDIO TITLE "Symphonie Nr. 6 a-moll: III. Andante moderato" PERFORMER "Concertgebouworkest. Bernard Haitink, conductor" REM DATE 1969 INDEX 00 13:17:00FILE "04 - Symphonie Nr. 6 - III. Andante moderato.flac" WAVE INDEX 01 00:00:00

    CD 7: Symphonie Nr. 6 (4) • Symphonie Nr. 9 (1, 2)

    TITLE "Gustav Mahler: Symphonien"PERFORMER "Bernard Haitink"REM GENRE ClassicalREM DISCID 22110F03REM COMMENT "ExactAudioCopy v1.0b3"CATALOG 0028944205725FILE "01 - Symphonie Nr. 6 - IV. Finale. Allegro moderato. Allegro energico.flac" WAVE TRACK 01 AUDIO TITLE "Symphonie Nr. 6 a-moll: IV. Finale: Allegro moderato. — Allegro energico" PERFORMER "Concertgebouworkest. Bernard Haitink, conductor" REM DATE 1969 PREGAP 00:00:33 INDEX 01 00:00:00 TRACK 02 AUDIO TITLE "Symphonie Nr. 9 D-dur: I. Andante comodo. — Mit Wut. Allegro risoluto" PERFORMER "Concertgebouworkest. Bernard Haitink, conductor" REM DATE 1969 INDEX 00 29:39:01FILE "02 - Symphonie Nr. 9 - I. Andante comodo. - Mit Wut. Allegro risoluto.flac" WAVE INDEX 01 00:00:00 TRACK 03 AUDIO TITLE "Symphonie Nr. 9 D-dur: II. Im Tempo eines gemächlichen Ländlers. Etwas täppisch und sehr derb" PERFORMER "Concertgebouworkest. Bernard Haitink, conductor" REM DATE 1969 INDEX 00 26:58:01FILE "03 - Symphonie Nr. 9 - II. Im Tempo eines gemaechlichen Laendlers.flac" WAVE INDEX 01 00:00:00

    CD 8: Symphonie Nr. 9 (3, 4)

    TITLE "Gustav Mahler: Symphonien"PERFORMER "Bernard Haitink"REM GENRE ClassicalREM DISCID 1608D902REM COMMENT "ExactAudioCopy v1.0b3"CATALOG 0028944205824FILE "01 - Symphonie Nr. 9 - III. Rondo-Burleske. Allegro assai. Sehr trotzig.flac" WAVE TRACK 01 AUDIO TITLE "Symphonie Nr. 9 D-dur: III. Rondo-Burleske: Allegro assai. Sehr trotzig" PERFORMER "Concertgebouworkest. Bernard Haitink, conductor" REM DATE 1969 PREGAP 00:00:33 INDEX 01 00:00:00 TRACK 02 AUDIO TITLE "Symphonie Nr. 9 D-dur: IV. Adagio: Sehr langsam und noch zurückhaltend" PERFORMER "Concertgebouworkest. Bernard Haitink, conductor" REM DATE 1969 INDEX 00 12:58:00FILE "02 - Symphonie Nr. 9 - IV. Adagio. Sehr langsam und noch zurueckhaltend.flac" WAVE INDEX 01 00:00:00

    CD 9: Symphonie Nr. 7

    TITLE "Gustav Mahler: Symphonien"PERFORMER "Bernard Haitink"REM GENRE ClassicalREM DISCID 3D11D205REM COMMENT "ExactAudioCopy v1.0b3"CATALOG 0028944205923FILE "01 - Symphonie Nr. 7 - I. Langsam (Adagio). - Allegro risoluto, ma non troppo.flac" WAVE TRACK 01 AUDIO TITLE "Symphonie Nr. 7 e-moll: I. Langsam (Adagio). — Allegro risoluto, ma non troppo" PERFORMER "Concertgebouworkest. Bernard Haitink, conductor" REM DATE 1969 PREGAP 00:00:33 INDEX 01 00:00:00 TRACK 02 AUDIO TITLE "Symphonie Nr. 7 e-moll: II. Nachtmusik I: Allegro moderato" PERFORMER "Concertgebouworkest. Bernard Haitink, conductor" REM DATE 1969 INDEX 00 20:48:00FILE "02 - Symphonie Nr. 7 - II. Nachtmusik I. Allegro moderato.flac" WAVE INDEX 01 00:00:00 TRACK 03 AUDIO TITLE "Symphonie Nr. 7 e-moll: III. Scherzo: Schattenhaft. — Fließend, aber nicht schnell" PERFORMER "Concertgebouworkest. Bernard Haitink, conductor" REM DATE 1969 INDEX 00 14:36:13FILE "03 - Symphonie Nr. 7 - III. Scherzo. Schattenhaft. - Fliessend, aber nicht schnell.flac" WAVE INDEX 01 00:00:00 TRACK 04 AUDIO TITLE "Symphonie Nr. 7 e-moll: IV. Nachtmusik II: Andante amoroso" PERFORMER "Concertgebouworkest. Bernard Haitink, conductor" REM DATE 1969 INDEX 00 09:45:45FILE "04 - Symphonie Nr. 7 - IV. Nachtmusik II. Andante amoroso.flac" WAVE INDEX 01 00:00:00 TRACK 05 AUDIO TITLE "Symphonie Nr. 7 e-moll: V. Rondo-Finale: Allegro ordinario. — Allegro moderato, ma energico" PERFORMER "Concertgebouworkest. Bernard Haitink, conductor" REM DATE 1969 INDEX 00 12:43:60FILE "05 - Symphonie Nr. 7 - V. Rondo-Finale. Allegro ordinario. - Allegro moderato, ma energico.flac" WAVE INDEX 01 00:00:00

    CD 10: Symphonie Nr. 8

    TITLE "Gustav Mahler: Symphonien"PERFORMER "Bernard Haitink"REM GENRE ClassicalREM DISCID 3511BC15REM COMMENT "ExactAudioCopy v1.0b3"CATALOG 0028944206029FILE "01 - Symphonie Nr. 8 - I. Veni, Creator Spiritus!.flac" WAVE TRACK 01 AUDIO TITLE "Symphonie Nr. 8 Es-dur: I. Hymnus «Veni, Creator Spiritus»: «Veni, Creator Spiritus!»" PERFORMER "Concertgebouworkest. Bernard Haitink, conductor" REM DATE 1971 PREGAP 00:00:32 INDEX 01 00:00:00FILE "02 - Symphonie Nr. 8 - Imple superna gratia.flac" WAVE TRACK 02 AUDIO TITLE "Symphonie Nr. 8 Es-dur: «Imple superna gratia»" PERFORMER "Concertgebouworkest. Bernard Haitink, conductor" REM DATE 1971 INDEX 01 00:00:00FILE "03 - Symphonie Nr. 8 - Infirma nostri corporis.flac" WAVE TRACK 03 AUDIO TITLE "Symphonie Nr. 8 Es-dur: «Infirma nostri corporis»" PERFORMER "Concertgebouworkest. Bernard Haitink, conductor" REM DATE 1971 INDEX 01 00:00:00FILE "04 - Symphonie Nr. 8 - Sehr fliessend.flac" WAVE TRACK 04 AUDIO TITLE "Symphonie Nr. 8 Es-dur: Sehr fließend" PERFORMER "Concertgebouworkest. Bernard Haitink, conductor" REM DATE 1971 INDEX 01 00:00:00FILE "05 - Symphonie Nr. 8 - Accende lumen sensibus.flac" WAVE TRACK 05 AUDIO TITLE "Symphonie Nr. 8 Es-dur: «Accende lumen sensibus»" PERFORMER "Concertgebouworkest. Bernard Haitink, conductor" REM DATE 1971 INDEX 01 00:00:00FILE "06 - Symphonie Nr. 8 - Qui Paraclitus diceris.flac" WAVE TRACK 06 AUDIO TITLE "Symphonie Nr. 8 Es-dur: «Qui Paraclitus diceris»" PERFORMER "Concertgebouworkest. Bernard Haitink, conductor" REM DATE 1971 INDEX 01 00:00:00FILE "07 - Symphonie Nr. 8 - Gloria sit Patri Domino.flac" WAVE TRACK 07 AUDIO TITLE "Symphonie Nr. 8 Es-dur: «Gloria sit Patri Domino»" PERFORMER "Concertgebouworkest. Bernard Haitink, conductor" REM DATE 1971 INDEX 01 00:00:00 TRACK 08 AUDIO TITLE "Symphonie Nr. 8 Es-dur: II. Slußszene aus Goethes «Faust»: Poco adagio" PERFORMER "Concertgebouworkest. Bernard Haitink, conductor" REM DATE 1971 INDEX 00 03:22:00FILE "08 - Symphonie Nr. 8 - II. Slussszene aus Goethes Faust. Poco adagio.flac" WAVE INDEX 01 00:00:00FILE "09 - Symphonie Nr. 8 - Piu mosso (Allegro moderato).flac" WAVE TRACK 09 AUDIO TITLE "Symphonie Nr. 8 Es-dur: Più mosso (Allegro moderato)" PERFORMER "Concertgebouworkest. Bernard Haitink, conductor" REM DATE 1971 INDEX 01 00:00:00FILE "10 - Symphonie Nr. 8 - Waldung, sie schwankt heran.flac" WAVE TRACK 10 AUDIO TITLE "Symphonie Nr. 8 Es-dur: «Waldung, sie schwankt heran»" PERFORMER "Concertgebouworkest. Bernard Haitink, conductor" REM DATE 1971 INDEX 01 00:00:00FILE "11 - Symphonie Nr. 8 - Ewiger Wonnebrand.flac" WAVE TRACK 11 AUDIO TITLE "Symphonie Nr. 8 Es-dur: «Ewiger Wonnebrand»" PERFORMER "Concertgebouworkest. Bernard Haitink, conductor" REM DATE 1971 INDEX 01 00:00:00FILE "12 - Symphonie Nr. 8 - Wie Felsenabgrund mir zu Fuessen.flac" WAVE TRACK 12 AUDIO TITLE "Symphonie Nr. 8 Es-dur: «Wie Felsenabgrund mir zu Füßen»" PERFORMER "Concertgebouworkest. Bernard Haitink, conductor" REM DATE 1971 INDEX 01 00:00:00FILE "13 - Symphonie Nr. 8 - Gerettet sei das edle Glied.flac" WAVE TRACK 13 AUDIO TITLE "Symphonie Nr. 8 Es-dur: «Gerettet sei das edle Glied»" PERFORMER "Concertgebouworkest. Bernard Haitink, conductor" REM DATE 1971 INDEX 01 00:00:00FILE "14 - Symphonie Nr. 8 - Jene Rosen.flac" WAVE TRACK 14 AUDIO TITLE "Symphonie Nr. 8 Es-dur: «Jene Rosen»" PERFORMER "Concertgebouworkest. Bernard Haitink, conductor" REM DATE 1971 INDEX 01 00:00:00FILE "15 - Symphonie Nr. 8 - Uns bleibt ein Erdenrest.flac" WAVE TRACK 15 AUDIO TITLE "Symphonie Nr. 8 Es-dur: «Uns bleibt ein Erdenrest»" PERFORMER "Concertgebouworkest. Bernard Haitink, conductor" REM DATE 1971 INDEX 01 00:00:00FILE "16 - Symphonie Nr. 8 - Ich spuer' soeben.flac" WAVE TRACK 16 AUDIO TITLE "Symphonie Nr. 8 Es-dur: «Ich spür' soeben»" PERFORMER "Concertgebouworkest. Bernard Haitink, conductor" REM DATE 1971 INDEX 01 00:00:00FILE "17 - Symphonie Nr. 8 - Dir, der Unberuehrbaren.flac" WAVE TRACK 17 AUDIO TITLE "Symphonie Nr. 8 Es-dur: «Dir, der Unberührbaren»" PERFORMER "Concertgebouworkest. Bernard Haitink, conductor" REM DATE 1971 INDEX 01 00:00:00FILE "18 - Symphonie Nr. 8 - Bei der Liebe.flac" WAVE TRACK 18 AUDIO TITLE "Symphonie Nr. 8 Es-dur: «Bei der Liebe»" PERFORMER "Concertgebouworkest. Bernard Haitink, conductor" REM DATE 1971 INDEX 01 00:00:00FILE "19 - Symphonie Nr. 8 - Er ueberwaechst uns schon.flac" WAVE TRACK 19 AUDIO TITLE "Symphonie Nr. 8 Es-dur: «Er überwächst uns schon»" PERFORMER "Concertgebouworkest. Bernard Haitink, conductor" REM DATE 1971 INDEX 01 00:00:00FILE "20 - Symphonie Nr. 8 - Blicket auf zu Retterblick.flac" WAVE TRACK 20 AUDIO TITLE "Symphonie Nr. 8 Es-dur: «Blicket auf zu Retterblick»" PERFORMER "Concertgebouworkest. Bernard Haitink, conductor" REM DATE 1971 INDEX 01 00:00:00FILE "21 - Symphonie Nr. 8 - Alles vergaengliche ist nur ein Gleichnis.flac" WAVE TRACK 21 AUDIO TITLE "Symphonie Nr. 8 Es-dur: «Alles vergängliche ist nur ein Gleichnis»" PERFORMER "Concertgebouworkest. Bernard Haitink, conductor" REM DATE 1971 INDEX 01 00:00:00



  • Показать сообщения:    

    Текущее время: 20-Янв 16:53

    Часовой пояс: UTC + 3


    Вы не можете начинать темы
    Вы не можете отвечать на сообщения
    Вы не можете редактировать свои сообщения
    Вы не можете удалять свои сообщения
    Вы не можете голосовать в опросах
    Вы не можете прикреплять файлы к сообщениям
    Вы не можете скачивать файлы