(Classical) Franz Schubert — Symphonies № 8 & 5 (D 759 & 485) • Rosamunde (D 797 Op 26) (Michael Halasz) — 1992, FLAC (tracks+.cue) lossless


 

[Цитировать]

Symphonies № 8 & 5 (D 759 & 485) • Rosamunde (D 797 Op 26)-
Жанр: Classical
Страна-производитель диска: Германия
Издатель (лейбл): Naxos
Номер по каталогу: 8.550145
Год издания диска: June, 30, 1992
Год записи фонограммы: 04.06.1988-05.06.1988, Moyzes Hall, Bratislava, Slovakia
Композитор: Franz Schubert
Исполнительский коллектив: Slovak Philharmonic Chamber Orchestra under Michael Halász
Аудио кодек: flac
Тип рипа: tracks+.cue
Битрейт аудио: lossless
Продолжительность: 01h04'20"
Источник: web
Наличие сканов в содержимом раздачи: нет-Треклист:
(01-02) Symphony № 8 h-moll D 759 «Unfinished» [26'03"]
(03-06) Symphony № 5 B-Dur D 485 [30'30"]
(07) Rosamunde, Fürstin von Cypern, incidental music, D 797 (Op 26): Ballet Music № 02 G-Dur [07'47"]-

XLD log

X Lossless Decoder version 20121027 (142.1)
XLD extraction logfile from 2012-11-14 02:54:19 -0600
Michael HalГЎsz: Slovak Philharmonic Orchestra / Schubert: Symphonies No. 8 & No. 5
Used drive : MATSHITA DVD-R   UJ-85J (revision FCQ5)
Ripper mode             : XLD Secure Ripper
Disable audio cache     : OK for the drive with a cache less than 1375KiB
Make use of C2 pointers : NO
Read offset correction  : 102
Max retry count         : 20
Gap status              : Analyzed, Appended (except HTOA)
TOC of the extracted CD
     Track |   Start  |  Length  | Start sector | End sector
    ---------------------------------------------------------
        1  | 00:00:00 | 14:50:00 |         0    |    66749
        2  | 14:50:00 | 11:13:00 |     66750    |   117224
        3  | 26:03:00 | 07:14:00 |    117225    |   149774
        4  | 33:17:00 | 11:55:00 |    149775    |   203399
        5  | 45:12:00 | 05:19:00 |    203400    |   227324
        6  | 50:31:00 | 06:02:00 |    227325    |   254474
        7  | 56:33:00 | 07:47:13 |    254475    |   289512
AccurateRip Summary
    Disc not found in AccurateRip DB.
All Tracks
    Album gain               : 1.09 dB
    Peak                     : 0.875885
    Statistics
        Read error                           : 0
        Jitter error (maybe fixed)           : 0
        Retry sector count                   : 0
        Damaged sector count                 : 0
Track 01
    Filename : /Volumes/HITACHI/Torrent Downloads/Michael HalГЎszпјљ Slovak Philharmonic Orchestra - Schubertпјљ Symphonies No. 8 & No. 5 (1988) [FLAC]/01 Schubertпјљ Symphony No. 8 In B Minor, D 759, "Unfinished" - 1. Allegro moderato.flac
    Pre-gap length : 00:02:00
    Track gain               : -0.64 dB
    Peak                     : 0.875885
    CRC32 hash (test run)    : 48F52B0D
    CRC32 hash               : 48F52B0D
    CRC32 hash (skip zero)   : 9A6C43F7
    AccurateRip v1 signature : 00238E5C
    AccurateRip v2 signature : 5E274427
        ->Track not present in AccurateRip database.
    Statistics
        Read error                           : 0
        Jitter error (maybe fixed)           : 0
        Retry sector count                   : 0
        Damaged sector count                 : 0
Track 02
    Filename : /Volumes/HITACHI/Torrent Downloads/Michael HalГЎszпјљ Slovak Philharmonic Orchestra - Schubertпјљ Symphonies No. 8 & No. 5 (1988) [FLAC]/02 Schubertпјљ Symphony No. 8 In B Minor, D 759, "Unfinished" - 2. Andante con moto.flac
    Track gain               : 0.75 dB
    Peak                     : 0.811676
    CRC32 hash (test run)    : B5490FD1
    CRC32 hash               : B5490FD1
    CRC32 hash (skip zero)   : 4FF59EAB
    AccurateRip v1 signature : 9CF58494
    AccurateRip v2 signature : 8FCFBCBC
        ->Track not present in AccurateRip database.
    Statistics
        Read error                           : 0
        Jitter error (maybe fixed)           : 0
        Retry sector count                   : 0
        Damaged sector count                 : 0
Track 03
    Filename : /Volumes/HITACHI/Torrent Downloads/Michael HalГЎszпјљ Slovak Philharmonic Orchestra - Schubertпјљ Symphonies No. 8 & No. 5 (1988) [FLAC]/03 Schubertпјљ Symphony No. 5 In B Flat Major, D 485 - 1. Allegro.flac
    Track gain               : 1.57 dB
    Peak                     : 0.632202
    CRC32 hash (test run)    : 5B5293A1
    CRC32 hash               : 5B5293A1
    CRC32 hash (skip zero)   : F1BD943F
    AccurateRip v1 signature : 5BBAD5E7
    AccurateRip v2 signature : A0B1CD61
        ->Track not present in AccurateRip database.
    Statistics
        Read error                           : 0
        Jitter error (maybe fixed)           : 0
        Retry sector count                   : 0
        Damaged sector count                 : 0
Track 04
    Filename : /Volumes/HITACHI/Torrent Downloads/Michael HalГЎszпјљ Slovak Philharmonic Orchestra - Schubertпјљ Symphonies No. 8 & No. 5 (1988) [FLAC]/04 Schubertпјљ Symphony No. 5 In B Flat Major, D 485 - 2. Andante con moto.flac
    Track gain               : 6.10 dB
    Peak                     : 0.383728
    CRC32 hash (test run)    : 7CD6A411
    CRC32 hash               : 7CD6A411
    CRC32 hash (skip zero)   : 3BB0F437
    AccurateRip v1 signature : FE138BBB
    AccurateRip v2 signature : E2F689C1
        ->Track not present in AccurateRip database.
    Statistics
        Read error                           : 0
        Jitter error (maybe fixed)           : 0
        Retry sector count                   : 0
        Damaged sector count                 : 0
Track 05
    Filename : /Volumes/HITACHI/Torrent Downloads/Michael HalГЎszпјљ Slovak Philharmonic Orchestra - Schubertпјљ Symphonies No. 8 & No. 5 (1988) [FLAC]/05 Schubertпјљ Symphony No. 5 In B Flat Major, D 485 - 3. Menuettoпјљ Allegro molto.flac
    Track gain               : 2.33 dB
    Peak                     : 0.645599
    CRC32 hash (test run)    : 26B174DB
    CRC32 hash               : 26B174DB
    CRC32 hash (skip zero)   : 3471A257
    AccurateRip v1 signature : FAB20BC5
    AccurateRip v2 signature : 6C417F78
        ->Track not present in AccurateRip database.
    Statistics
        Read error                           : 0
        Jitter error (maybe fixed)           : 0
        Retry sector count                   : 0
        Damaged sector count                 : 0
Track 06
    Filename : /Volumes/HITACHI/Torrent Downloads/Michael HalГЎszпјљ Slovak Philharmonic Orchestra - Schubertпјљ Symphonies No. 8 & No. 5 (1988) [FLAC]/06 Schubertпјљ Symphony No. 5 In B Flat Major, D 485 - 4. Allegro vivace.flac
    Track gain               : 0.71 dB
    Peak                     : 0.656799
    CRC32 hash (test run)    : ABEB0EA1
    CRC32 hash               : ABEB0EA1
    CRC32 hash (skip zero)   : A095DC0B
    AccurateRip v1 signature : A386E377
    AccurateRip v2 signature : 5F62FFE7
        ->Track not present in AccurateRip database.
    Statistics
        Read error                           : 0
        Jitter error (maybe fixed)           : 0
        Retry sector count                   : 0
        Damaged sector count                 : 0
Track 07
    Filename : /Volumes/HITACHI/Torrent Downloads/Michael HalГЎszпјљ Slovak Philharmonic Orchestra - Schubertпјљ Symphonies No. 8 & No. 5 (1988) [FLAC]/07 Schubertпјљ Rosamunde, Op. 26, D 797 - Ballet Music No. 2.flac
    Track gain               : 2.02 dB
    Peak                     : 0.727234
    CRC32 hash (test run)    : 32851F48
    CRC32 hash               : 32851F48
    CRC32 hash (skip zero)   : E9A0956A
    AccurateRip v1 signature : 54C9352E
    AccurateRip v2 signature : 2F752CE4
        ->Track not present in AccurateRip database.
    Statistics
        Read error                           : 0
        Jitter error (maybe fixed)           : 0
        Retry sector count                   : 0
        Damaged sector count                 : 0
No errors occurred
End of status report

-

CUE

TITLE "Schubert: Symphonies No. 8 & No. 5"
PERFORMER "Michael HalГЎsz: Slovak Philharmonic Orchestra"
REM GENRE "Classical"
REM DATE "1988"
REM DISCNUMBER 1
REM TOTALDISCS 1
REM DISCID 6D0F1407
REM REPLAYGAIN_ALBUM_GAIN 1.09 dB
REM REPLAYGAIN_ALBUM_PEAK 0.875885
FILE "01 Schubertпјљ Symphony No. 8 In B Minor, D 759, "Unfinished" - 1. Allegro moderato.flac" WAVE
  TRACK 01 AUDIO
    TITLE "Schubert: Symphony No. 8 In B Minor, D 759, "Unfinished" - 1. Allegro moderato"
    SONGWRITER "Franz Schubert (1797-1828)"
    REM REPLAYGAIN_TRACK_GAIN -0.64 dB
    REM REPLAYGAIN_TRACK_PEAK 0.875885
    INDEX 01 00:00:00
FILE "02 Schubertпјљ Symphony No. 8 In B Minor, D 759, "Unfinished" - 2. Andante con moto.flac" WAVE
  TRACK 02 AUDIO
    TITLE "Schubert: Symphony No. 8 In B Minor, D 759, "Unfinished" - 2. Andante con moto"
    SONGWRITER "Franz Schubert (1797-1828)"
    REM REPLAYGAIN_TRACK_GAIN 0.75 dB
    REM REPLAYGAIN_TRACK_PEAK 0.811676
    INDEX 01 00:00:00
FILE "03 Schubertпјљ Symphony No. 5 In B Flat Major, D 485 - 1. Allegro.flac" WAVE
  TRACK 03 AUDIO
    TITLE "Schubert: Symphony No. 5 In B Flat Major, D 485 - 1. Allegro"
    SONGWRITER "Franz Schubert (1797-1828)"
    REM REPLAYGAIN_TRACK_GAIN 1.57 dB
    REM REPLAYGAIN_TRACK_PEAK 0.632202
    INDEX 01 00:00:00
FILE "04 Schubertпјљ Symphony No. 5 In B Flat Major, D 485 - 2. Andante con moto.flac" WAVE
  TRACK 04 AUDIO
    TITLE "Schubert: Symphony No. 5 In B Flat Major, D 485 - 2. Andante con moto"
    SONGWRITER "Franz Schubert (1797-1828)"
    REM REPLAYGAIN_TRACK_GAIN 6.10 dB
    REM REPLAYGAIN_TRACK_PEAK 0.383728
    INDEX 01 00:00:00
FILE "05 Schubertпјљ Symphony No. 5 In B Flat Major, D 485 - 3. Menuettoпјљ Allegro molto.flac" WAVE
  TRACK 05 AUDIO
    TITLE "Schubert: Symphony No. 5 In B Flat Major, D 485 - 3. Menuetto: Allegro molto"
    SONGWRITER "Franz Schubert (1797-1828)"
    REM REPLAYGAIN_TRACK_GAIN 2.33 dB
    REM REPLAYGAIN_TRACK_PEAK 0.645599
    INDEX 01 00:00:00
FILE "06 Schubertпјљ Symphony No. 5 In B Flat Major, D 485 - 4. Allegro vivace.flac" WAVE
  TRACK 06 AUDIO
    TITLE "Schubert: Symphony No. 5 In B Flat Major, D 485 - 4. Allegro vivace"
    SONGWRITER "Franz Schubert (1797-1828)"
    REM REPLAYGAIN_TRACK_GAIN 0.71 dB
    REM REPLAYGAIN_TRACK_PEAK 0.656799
    INDEX 01 00:00:00
FILE "07 Schubertпјљ Rosamunde, Op. 26, D 797 - Ballet Music No. 2.flac" WAVE
  TRACK 07 AUDIO
    TITLE "Schubert: Rosamunde, Op. 26, D 797 - Ballet Music No. 2"
    SONGWRITER "Franz Schubert (1797-1828)"
    REM REPLAYGAIN_TRACK_GAIN 2.02 dB
    REM REPLAYGAIN_TRACK_PEAK 0.727234
    INDEX 01 00:00:00
-



Показать сообщения:    

Текущее время: 04-Дек 19:22

Часовой пояс: UTC + 3


Вы не можете начинать темы
Вы не можете отвечать на сообщения
Вы не можете редактировать свои сообщения
Вы не можете удалять свои сообщения
Вы не можете голосовать в опросах
Вы не можете прикреплять файлы к сообщениям
Вы не можете скачивать файлы