(Classical) Franz Schubert — Symphonies № 1 & 2 (D 82 & 125) (Michael Halasz) — 1994, FLAC (tracks+.cue) lossless


 

[Цитировать]

Symphonies № 1 & 2 (D 82 & 125)-
Жанр: Classical
Страна-производитель диска: Германия
Издатель (лейбл): Naxos
Номер по каталогу: 8.553093
Год издания диска: 1994
Год записи фонограммы: March, 1994, Italian Institute, Budapest
Композитор: Franz Schubert
Исполнительский коллектив: Failoni Orchestra under Michael Halász
Аудио кодек: flac
Тип рипа: tracks+.cue
Битрейт аудио: lossless
Продолжительность: 01h03'08"
Источник: web
Наличие сканов в содержимом раздачи: нет-Треклист:
(01-04) Symphony № 1 D-Dur D 82 [29'21"]
(05-08) Symphony № 2 B-Dur D 125 [33'47"]-

XLD log

X Lossless Decoder version 20120226 (139.1)
XLD extraction logfile from 2012-03-31 13:50:35 +0200
Franz Schubert - Failoni Orchestra, Michael Halasz / Symphonies Nos. 1 And 2
Used drive : MATSHITA DVD-R   UJ-857 (revision HAEA)
Ripper mode             : XLD Secure Ripper
Disable audio cache     : OK for the drive with a cache less than 1375KiB
Make use of C2 pointers : NO
Read offset correction  : 102
Max retry count         : 20
Gap status              : Analyzed, Appended (except HTOA)
TOC of the extracted CD
     Track |   Start  |  Length  | Start sector | End sector
    ---------------------------------------------------------
        1  | 00:00:32 | 11:47:25 |        32    |    53081
        2  | 11:47:57 | 07:30:00 |     53082    |    86831
        3  | 19:17:57 | 04:13:03 |     86832    |   105809
        4  | 23:30:60 | 05:50:37 |    105810    |   132096
        5  | 29:21:22 | 14:07:43 |    132097    |   195664
        6  | 43:28:65 | 08:13:10 |    195665    |   232649
        7  | 51:42:00 | 03:11:55 |    232650    |   247029
        8  | 54:53:55 | 08:14:52 |    247030    |   284131
List of alternate offset correction values
        #  | Absolute | Relative | Confidence
    ------------------------------------------
        1  |    469   |    367   |      4
        2  |   -565   |   -667   |      3
AccurateRip Summary
    Track 01 : OK (confidence 4, with different offset)
    Track 02 : OK (confidence 4, with different offset)
    Track 03 : OK (confidence 4, with different offset)
    Track 04 : OK (confidence 4, with different offset)
    Track 05 : OK (confidence 4, with different offset)
    Track 06 : OK (confidence 4, with different offset)
    Track 07 : OK (confidence 4, with different offset)
    Track 08 : OK (confidence 4, with different offset)
        ->All tracks accurately ripped.
All Tracks
    Album gain             : -0.13 dB
    Peak                   : 0.936462
    Statistics
        Read error                           : 0
        Jitter error (maybe fixed)           : 0
        Retry sector count                   : 0
        Damaged sector count                 : 0
Track 01
    Filename : /Users/admin/Music/Franz Schubert - Failoni Orchestra, Michael Halasz - Symphonies Nos. 1 And 2 (1994) [FLAC]/01 Schubertпјљ Symphony #1 In D, D 82 - 1. Adagio, Allegro Vivace.flac
    Pre-gap length : 00:02:32
    Track gain             : -0.79 dB
    Peak                   : 0.862335
    CRC32 hash (test run)  : B8CA52B1
    CRC32 hash             : B8CA52B1
    CRC32 hash (skip zero) : E032C21F
    AccurateRip signature  : 388E26CC
        ->Accurately ripped! (confidence 4)
          (matched with the different offset correction value;
           calculated using an additional offset of 367;
           the signature after correction is: D159D352)
    Statistics
        Read error                           : 0
        Jitter error (maybe fixed)           : 0
        Retry sector count                   : 0
        Damaged sector count                 : 0
Track 02
    Filename : /Users/admin/Music/Franz Schubert - Failoni Orchestra, Michael Halasz - Symphonies Nos. 1 And 2 (1994) [FLAC]/02 Schubertпјљ Symphony #1 In D, D 82 - 2. Andante.flac
    Track gain             : 5.96 dB
    Peak                   : 0.468384
    CRC32 hash (test run)  : 76CD5266
    CRC32 hash             : 76CD5266
    CRC32 hash (skip zero) : C0ED8719
    AccurateRip signature  : 80FC3BAB
        ->Accurately ripped! (confidence 4)
          (matched with the different offset correction value;
           calculated using an additional offset of 367;
           the signature after correction is: C74B53EC)
    Statistics
        Read error                           : 0
        Jitter error (maybe fixed)           : 0
        Retry sector count                   : 0
        Damaged sector count                 : 0
Track 03
    Filename : /Users/admin/Music/Franz Schubert - Failoni Orchestra, Michael Halasz - Symphonies Nos. 1 And 2 (1994) [FLAC]/03 Schubertпјљ Symphony #1 In D, D 82 - 3. Menuetto.flac
    Track gain             : -0.16 dB
    Peak                   : 0.696106
    CRC32 hash (test run)  : 597E81C8
    CRC32 hash             : 597E81C8
    CRC32 hash (skip zero) : 2F191199
    AccurateRip signature  : 177F111E
        ->Accurately ripped! (confidence 4)
          (matched with the different offset correction value;
           calculated using an additional offset of 367;
           the signature after correction is: 8BA06430)
    Statistics
        Read error                           : 0
        Jitter error (maybe fixed)           : 0
        Retry sector count                   : 0
        Damaged sector count                 : 0
Track 04
    Filename : /Users/admin/Music/Franz Schubert - Failoni Orchestra, Michael Halasz - Symphonies Nos. 1 And 2 (1994) [FLAC]/04 Schubertпјљ Symphony #1 In D, D 82 - 4. Allegro Vivace.flac
    Pre-gap length : 00:01:45
    Track gain             : -0.27 dB
    Peak                   : 0.828613
    CRC32 hash (test run)  : 5AFDC2C2
    CRC32 hash             : 5AFDC2C2
    CRC32 hash (skip zero) : FD801152
    AccurateRip signature  : 49585B9B
        ->Accurately ripped! (confidence 4)
          (matched with the different offset correction value;
           calculated using an additional offset of 367;
           the signature after correction is: C9F02750)
    Statistics
        Read error                           : 0
        Jitter error (maybe fixed)           : 0
        Retry sector count                   : 0
        Damaged sector count                 : 0
Track 05
    Filename : /Users/admin/Music/Franz Schubert - Failoni Orchestra, Michael Halasz - Symphonies Nos. 1 And 2 (1994) [FLAC]/05 Schubertпјљ Symphony #2 In B Flat, D 125 - 1. Largo, Allegro Vivace.flac
    Pre-gap length : 00:04:55
    Track gain             : -0.08 dB
    Peak                   : 0.898651
    CRC32 hash (test run)  : 03CF1A96
    CRC32 hash             : 03CF1A96
    CRC32 hash (skip zero) : C13FF56C
    AccurateRip signature  : 38F4DBB6
        ->Accurately ripped! (confidence 4)
          (matched with the different offset correction value;
           calculated using an additional offset of 367;
           the signature after correction is: 3BCC5548)
    Statistics
        Read error                           : 0
        Jitter error (maybe fixed)           : 0
        Retry sector count                   : 0
        Damaged sector count                 : 0
Track 06
    Filename : /Users/admin/Music/Franz Schubert - Failoni Orchestra, Michael Halasz - Symphonies Nos. 1 And 2 (1994) [FLAC]/06 Schubertпјљ Symphony #2 In B Flat, D 125 - 2. Andante, Var. 1-5.flac
    Pre-gap length : 00:01:05
    Track gain             : 2.88 dB
    Peak                   : 0.658081
    CRC32 hash (test run)  : DB4FAFF1
    CRC32 hash             : DB4FAFF1
    CRC32 hash (skip zero) : 4461BEF1
    AccurateRip signature  : 705E3844
        ->Accurately ripped! (confidence 4)
          (matched with the different offset correction value;
           calculated using an additional offset of 367;
           the signature after correction is: 232B9B6A)
    Statistics
        Read error                           : 0
        Jitter error (maybe fixed)           : 0
        Retry sector count                   : 0
        Damaged sector count                 : 0
Track 07
    Filename : /Users/admin/Music/Franz Schubert - Failoni Orchestra, Michael Halasz - Symphonies Nos. 1 And 2 (1994) [FLAC]/07 Schubertпјљ Symphony #2 In B Flat, D 125 - 3. Menuetto.flac
    Track gain             : 0.36 dB
    Peak                   : 0.676392
    CRC32 hash (test run)  : 896E19FF
    CRC32 hash             : 896E19FF
    CRC32 hash (skip zero) : 71D7CC13
    AccurateRip signature  : F89C06E3
        ->Accurately ripped! (confidence 4)
          (matched with the different offset correction value;
           calculated using an additional offset of 367;
           the signature after correction is: 375274BD)
    Statistics
        Read error                           : 0
        Jitter error (maybe fixed)           : 0
        Retry sector count                   : 0
        Damaged sector count                 : 0
Track 08
    Filename : /Users/admin/Music/Franz Schubert - Failoni Orchestra, Michael Halasz - Symphonies Nos. 1 And 2 (1994) [FLAC]/08 Schubertпјљ Symphony #2 In B Flat, D 125 - 4. Presto Vivace.flac
    Track gain             : -1.01 dB
    Peak                   : 0.936462
    CRC32 hash (test run)  : 6EAB85A9
    CRC32 hash             : 6EAB85A9
    CRC32 hash (skip zero) : 71660B85
    AccurateRip signature  : E609FDCC
        ->Accurately ripped! (confidence 4)
          (matched with the different offset correction value;
           calculated using an additional offset of 367;
           the signature after correction is: 7B11D12A)
    Statistics
        Read error                           : 0
        Jitter error (maybe fixed)           : 0
        Retry sector count                   : 0
        Damaged sector count                 : 0
No errors occurred
End of status report

-

CUE

TITLE "Symphonies Nos. 1 And 2"
PERFORMER "Franz Schubert - Failoni Orchestra, Michael Halasz"
REM GENRE "Classical"
REM DATE "1994"
REM DISCNUMBER 1
REM TOTALDISCS 5
REM DISCID 5F0ECC08
REM REPLAYGAIN_ALBUM_GAIN -0.13 dB
REM REPLAYGAIN_ALBUM_PEAK 0.936462
FILE "01 Schubertпјљ Symphony #1 In D, D 82 - 1. Adagio, Allegro Vivace.flac" WAVE
  TRACK 01 AUDIO
    TITLE "Schubert: Symphony #1 In D, D 82 - 1. Adagio, Allegro Vivace"
    PERFORMER "Failoni Orchestra, Michael HalГЎsz"
    SONGWRITER "Schubert/Franz Schubert"
    REM COMMENT "Naxos – 8.553093"
    REM REPLAYGAIN_TRACK_GAIN -0.79 dB
    REM REPLAYGAIN_TRACK_PEAK 0.862335
    PREGAP 00:00:32
    INDEX 01 00:00:00
FILE "02 Schubertпјљ Symphony #1 In D, D 82 - 2. Andante.flac" WAVE
  TRACK 02 AUDIO
    TITLE "Schubert: Symphony #1 In D, D 82 - 2. Andante"
    PERFORMER "Failoni Orchestra, Michael HalГЎsz"
    SONGWRITER "Schubert/Franz Schubert"
    REM COMMENT "Naxos – 8.553093"
    REM REPLAYGAIN_TRACK_GAIN 5.96 dB
    REM REPLAYGAIN_TRACK_PEAK 0.468384
    INDEX 01 00:00:00
FILE "03 Schubertпјљ Symphony #1 In D, D 82 - 3. Menuetto.flac" WAVE
  TRACK 03 AUDIO
    TITLE "Schubert: Symphony #1 In D, D 82 - 3. Menuetto"
    PERFORMER "Failoni Orchestra, Michael HalГЎsz"
    SONGWRITER "Schubert/Franz Schubert"
    REM COMMENT "Naxos – 8.553093"
    REM REPLAYGAIN_TRACK_GAIN -0.16 dB
    REM REPLAYGAIN_TRACK_PEAK 0.696106
    INDEX 01 00:00:00
  TRACK 04 AUDIO
    TITLE "Schubert: Symphony #1 In D, D 82 - 4. Allegro Vivace"
    PERFORMER "Failoni Orchestra, Michael HalГЎsz"
    SONGWRITER "Schubert/Franz Schubert"
    REM COMMENT "Naxos – 8.553093"
    REM REPLAYGAIN_TRACK_GAIN -0.27 dB
    REM REPLAYGAIN_TRACK_PEAK 0.828613
    INDEX 00 04:11:33
FILE "04 Schubertпјљ Symphony #1 In D, D 82 - 4. Allegro Vivace.flac" WAVE
    INDEX 01 00:00:00
  TRACK 05 AUDIO
    TITLE "Schubert: Symphony #2 In B Flat, D 125 - 1. Largo, Allegro Vivace"
    PERFORMER "Failoni Orchestra, Michael HalГЎsz"
    SONGWRITER "Schubert/Franz Schubert"
    REM COMMENT "Naxos – 8.553093"
    REM REPLAYGAIN_TRACK_GAIN -0.08 dB
    REM REPLAYGAIN_TRACK_PEAK 0.898651
    INDEX 00 05:45:57
FILE "05 Schubertпјљ Symphony #2 In B Flat, D 125 - 1. Largo, Allegro Vivace.flac" WAVE
    INDEX 01 00:00:00
  TRACK 06 AUDIO
    TITLE "Schubert: Symphony #2 In B Flat, D 125 - 2. Andante, Var. 1-5"
    PERFORMER "Failoni Orchestra, Michael HalГЎsz"
    SONGWRITER "Schubert/Franz Schubert"
    REM COMMENT "Naxos – 8.553093"
    REM REPLAYGAIN_TRACK_GAIN 2.88 dB
    REM REPLAYGAIN_TRACK_PEAK 0.658081
    INDEX 00 14:06:38
FILE "06 Schubertпјљ Symphony #2 In B Flat, D 125 - 2. Andante, Var. 1-5.flac" WAVE
    INDEX 01 00:00:00
FILE "07 Schubertпјљ Symphony #2 In B Flat, D 125 - 3. Menuetto.flac" WAVE
  TRACK 07 AUDIO
    TITLE "Schubert: Symphony #2 In B Flat, D 125 - 3. Menuetto"
    PERFORMER "Failoni Orchestra, Michael HalГЎsz"
    SONGWRITER "Schubert/Franz Schubert"
    REM COMMENT "Naxos – 8.553093"
    REM REPLAYGAIN_TRACK_GAIN 0.36 dB
    REM REPLAYGAIN_TRACK_PEAK 0.676392
    INDEX 01 00:00:00
FILE "08 Schubertпјљ Symphony #2 In B Flat, D 125 - 4. Presto Vivace.flac" WAVE
  TRACK 08 AUDIO
    TITLE "Schubert: Symphony #2 In B Flat, D 125 - 4. Presto Vivace"
    PERFORMER "Failoni Orchestra, Michael HalГЎsz"
    SONGWRITER "Schubert/Franz Schubert"
    REM COMMENT "Naxos – 8.553093"
    REM REPLAYGAIN_TRACK_GAIN -1.01 dB
    REM REPLAYGAIN_TRACK_PEAK 0.936462
    INDEX 01 00:00:00
-



Показать сообщения:    

Текущее время: 03-Дек 16:47

Часовой пояс: UTC + 3


Вы не можете начинать темы
Вы не можете отвечать на сообщения
Вы не можете редактировать свои сообщения
Вы не можете удалять свои сообщения
Вы не можете голосовать в опросах
Вы не можете прикреплять файлы к сообщениям
Вы не можете скачивать файлы