(Classical) Franz Schubert — Symphonies № 8 & 9 (D 759 & 944) (Gunter Wand) — 2001, FLAC (tracks+.cue) lossless


 

[Цитировать]

Symphonies № 8 & 9 (D 759 & 944)-
Жанр: Classical
Страна-производитель диска: США
Издатель (лейбл): RCA Red Seal / BMG
Номер по каталогу: 74321 68007 2
Год издания диска: 2001
Годы записи фонограмм: 1980 (1) & 1977 (2)
Композитор: Franz Schubert
Исполнительский коллектив: Kölner Rundfunk-Sinfonie-Orchester under Günter Wand
Аудио кодек: flac
Тип рипа: tracks+.cue
Битрейт аудио: lossless
Продолжительность: 01h18'10"
Источник: web
Наличие сканов в содержимом раздачи: да-Треклист:
(01-02) Symphony № 8 h-moll D 759 «Unfinished» [27'04"]
(03-06) Symphony № 9 C-Dur D 944 «The Great» [51'06"]-

XLD log

X Lossless Decoder version 20120407 (140.0)
XLD extraction logfile from 2012-04-15 10:11:57 +0000
Schubert, Franz / Symphonies nos. 8 & 9
Used drive : OPTIARC DVD RW AD-5680H (revision 3AHB)
Ripper mode             : XLD Secure Ripper
Disable audio cache     : OK for the drive with a cache less than 1375KiB
Make use of C2 pointers : NO
Read offset correction  : 48
Max retry count         : 100
Gap status              : Analyzed, Appended (except HTOA)
TOC of the extracted CD
     Track |   Start  |  Length  | Start sector | End sector
    ---------------------------------------------------------
        1  | 00:00:00 | 14:49:00 |         0    |    66674
        2  | 14:49:00 | 12:15:00 |     66675    |   121799
        3  | 27:04:00 | 13:49:00 |    121800    |   183974
        4  | 40:53:00 | 15:16:00 |    183975    |   252674
        5  | 56:09:00 | 10:42:30 |    252675    |   300854
        6  | 66:51:30 | 11:18:42 |    300855    |   351746
AccurateRip Summary
    Track 01 : OK (confidence 3)
    Track 02 : OK (confidence 3)
    Track 03 : OK (confidence 3)
    Track 04 : OK (confidence 3)
    Track 05 : OK (confidence 3)
    Track 06 : OK (confidence 3)
        ->All tracks accurately ripped.
All Tracks
    Album gain             : -3.01 dB
    Peak                   : 0.999939
    Statistics
        Read error                           : 0
        Jitter error (maybe fixed)           : 0
        Retry sector count                   : 5
        Damaged sector count                 : 0
Track 01
    Filename : /XLD Rip/01 - Symphony no. 8 'unfinished' d. 759 in b minor - I. Allegro moderato.flac
    Pre-gap length : 00:02:00
    Track gain             : -2.28 dB
    Peak                   : 0.999939
    CRC32 hash (test run)  : E1A79017
    CRC32 hash             : E1A79017
    CRC32 hash (skip zero) : AE02A954
    AccurateRip signature  : 721AEEBA
        ->Accurately ripped! (confidence 3)
    Statistics
        Read error                           : 0
        Jitter error (maybe fixed)           : 0
        Retry sector count                   : 0
        Damaged sector count                 : 0
Track 02
    Filename : /XLD Rip/02 - Symphony no. 8 'unfinished' d. 759 in b minor - II. Andante con moto.flac
    Pre-gap length : 00:05:45
    Track gain             : -1.70 dB
    Peak                   : 0.999939
    CRC32 hash (test run)  : 7CBA8FC6
    CRC32 hash             : 7CBA8FC6
    CRC32 hash (skip zero) : 707A730A
    AccurateRip signature  : 1C5C1648
        ->Accurately ripped! (confidence 3)
    Statistics
        Read error                           : 0
        Jitter error (maybe fixed)           : 0
        Retry sector count                   : 0
        Damaged sector count                 : 0
Track 03
    Filename : /XLD Rip/03 - Symphony no. 9 'the great' d. 944 in c major - I. Andate. Allegro ma non troppo.flac
    Pre-gap length : 00:11:05
    Track gain             : -4.98 dB
    Peak                   : 0.999939
    CRC32 hash (test run)  : ED685CAC
    CRC32 hash             : ED685CAC
    CRC32 hash (skip zero) : 07EF0C42
    AccurateRip signature  : 905DF970
        ->Accurately ripped! (confidence 3)
    Statistics
        Read error                           : 0
        Jitter error (maybe fixed)           : 0
        Retry sector count                   : 0
        Damaged sector count                 : 0
Track 04
    Filename : /XLD Rip/04 - Symphony no. 9 'the great' d. 944 in c major - II. Andante con moto.flac
    Pre-gap length : 00:04:70
    Track gain             : -1.76 dB
    Peak                   : 0.999786
    CRC32 hash (test run)  : 4B713557
    CRC32 hash             : 4B713557
    CRC32 hash (skip zero) : 97E396B7
    AccurateRip signature  : 71A38290
        ->Accurately ripped! (confidence 3)
    Statistics
        Read error                           : 0
        Jitter error (maybe fixed)           : 0
        Retry sector count                   : 0
        Damaged sector count                 : 0
Track 05
    Filename : /XLD Rip/05 - Symphony no. 9 'the great' d. 944 in c major - III. Scherzo, allegro vivace.flac
    Pre-gap length : 00:04:60
    Track gain             : 0.02 dB
    Peak                   : 0.962280
    CRC32 hash (test run)  : 5524AB2B
    CRC32 hash             : 5524AB2B
    CRC32 hash (skip zero) : D7CA854A
    AccurateRip signature  : 9EB0A267
        ->Accurately ripped! (confidence 3)
    Statistics
        Read error                           : 0
        Jitter error (maybe fixed)           : 0
        Retry sector count                   : 0
        Damaged sector count                 : 0
Track 06
    Filename : /XLD Rip/06 - Symphony no. 9 'the great' d. 944 in c major - IV. Finale, allegro vivace.flac
    Pre-gap length : 00:05:03
    Track gain             : -4.25 dB
    Peak                   : 0.999847
    CRC32 hash (test run)  : 63905144
    CRC32 hash             : 63905144
    CRC32 hash (skip zero) : F4E21852
    AccurateRip signature  : FDBF4A86
        ->Accurately ripped! (confidence 3)
    Statistics
        Read error                           : 0
        Jitter error (maybe fixed)           : 0
        Retry sector count                   : 5
        Damaged sector count                 : 0
No errors occurred
End of status report

-

CUE

PERFORMER "Schubert, Franz"
TITLE "Symphonies nos. 8 & 9"
REM GENRE "Classical"
REM DATE "2001"
REM DISCID 49125106
FILE "01 - Symphony no. 8 'unfinished' d. 759 in b minor - I. Allegro moderato.wav" WAVE
  TRACK 01 AUDIO
    TITLE "Symphony no. 8 'unfinished' d. 759 in b minor - I. Allegro moderato"
    INDEX 01 00:00:00
  TRACK 02 AUDIO
    TITLE "Symphony no. 8 'unfinished' d. 759 in b minor - II. Andante con moto"
    INDEX 00 14:43:30
FILE "02 - Symphony no. 8 'unfinished' d. 759 in b minor - II. Andante con moto.wav" WAVE
    INDEX 01 00:00:00
  TRACK 03 AUDIO
    TITLE "Symphony no. 9 'the great' d. 944 in c major - I. Andate. Allegro ma non troppo"
    INDEX 00 12:03:70
FILE "03 - Symphony no. 9 'the great' d. 944 in c major - I. Andate. Allegro ma non troppo.wav" WAVE
    INDEX 01 00:00:00
  TRACK 04 AUDIO
    TITLE "Symphony no. 9 'the great' d. 944 in c major - II. Andante con moto"
    INDEX 00 13:44:05
FILE "04 - Symphony no. 9 'the great' d. 944 in c major - II. Andante con moto.wav" WAVE
    INDEX 01 00:00:00
  TRACK 05 AUDIO
    TITLE "Symphony no. 9 'the great' d. 944 in c major - III. Scherzo, allegro vivace"
    INDEX 00 15:11:15
FILE "05 - Symphony no. 9 'the great' d. 944 in c major - III. Scherzo, allegro vivace.wav" WAVE
    INDEX 01 00:00:00
  TRACK 06 AUDIO
    TITLE "Symphony no. 9 'the great' d. 944 in c major - IV. Finale, allegro vivace"
    INDEX 00 10:37:27
FILE "06 - Symphony no. 9 'the great' d. 944 in c major - IV. Finale, allegro vivace.wav" WAVE
    INDEX 01 00:00:00
-



Показать сообщения:    

Текущее время: 06-Дек 11:12

Часовой пояс: UTC + 3


Вы не можете начинать темы
Вы не можете отвечать на сообщения
Вы не можете редактировать свои сообщения
Вы не можете удалять свои сообщения
Вы не можете голосовать в опросах
Вы не можете прикреплять файлы к сообщениям
Вы не можете скачивать файлы