(Classical) Johann Sebastian Bach - Cello Suites - Colin Carr - 2013, FLAC (image+.cue) lossless


 

[Цитировать]

Johann Sebastian Bach - Cello Suites - Colin Carr
Жанр: Classical
Страна-производитель диска: UK
Год издания диска: 2013
Издатель (лейбл): Wigmore Hall Live
Номер по каталогу: WHLive0060/2
Дата записи: 2012
Аудиокодек: FLAC
Тип рипа: image+.cue
Битрейт аудио: lossless
Продолжительность: 145:31
Источник: собственный рип
Наличие сканов в содержимом раздачи: да
Треклист:
Johann Sebastian Bach
Cello Suites
CD1
[1]-[6] Cello Suite No.1 in G major, BWV 1007
[7]-[12] Cello Suite No.3 in C major, BWV 1009
[13]-[18] Cello Suite No.5 in C minor, BWV 1011
CD2
[1]-[6] Cello Suite No.2 in D minor, BWV 1008
[7]-[12] Cello Suite No.4 in E flat major, BWV 1010
[13]-[18] Cello Suite No.6 in D major, BWV 1012
Исполнители:
Colin Carr cello

Лог создания рипа: CD1

Exact Audio Copy V1.0 beta 3 from 29. August 2011
EAC extraction logfile from 26. April 2015, 19:42
Colin Carr / Bach - Cello Suites - CD1
Used drive : HL-DT-STDVDRAM GU70N Adapter: 0 ID: 0
Read mode : SecureUtilize accurate stream : YesDefeat audio cache : YesMake use of C2 pointers : No
Read offset correction : 48Overread into Lead-In and Lead-Out : NoFill up missing offset samples with silence : YesDelete leading and trailing silent blocks : NoNull samples used in CRC calculations : YesUsed interface : Native Win32 interface for Win NT & 2000
Used output format : User Defined EncoderSelected bitrate : 128 kBit/sQuality : HighAdd ID3 tag : NoCommand line compressor : C:\Program Files (x86)\Exact Audio Copy\Flac\flac.exeAdditional command line options : -V -8 -T "Date=%year%" -T "Genre=%genre%" %source%
TOC of the extracted CD
Track | Start | Length | Start sector | End sector --------------------------------------------------------- 1 | 0:00.00 | 2:33.61 | 0 | 11535 2 | 2:33.61 | 4:31.63 | 11536 | 31923 3 | 7:05.49 | 2:50.65 | 31924 | 44738 4 | 9:56.39 | 2:42.04 | 44739 | 56892 5 | 12:38.43 | 3:27.22 | 56893 | 72439 6 | 16:05.65 | 2:16.07 | 72440 | 82646 7 | 18:21.72 | 3:49.01 | 82647 | 99822 8 | 22:10.73 | 4:10.18 | 99823 | 118590 9 | 26:21.16 | 3:13.07 | 118591 | 133072 10 | 29:34.23 | 4:09.65 | 133073 | 151812 11 | 33:44.13 | 3:53.15 | 151813 | 169302 12 | 37:37.28 | 3:43.14 | 169303 | 186041 13 | 41:20.42 | 6:15.58 | 186042 | 214224 14 | 47:36.25 | 5:52.48 | 214225 | 240672 15 | 53:28.73 | 2:24.65 | 240673 | 251537 16 | 55:53.63 | 3:42.20 | 251538 | 268207 17 | 59:36.08 | 4:44.34 | 268208 | 289541 18 | 64:20.42 | 3:22.33 | 289542 | 304724
Range status and errors
Selected range
Filename C:\temp\Bach - Cello Suites - Carr\CD1\Bach - Cello Suites - CD1.wav
Peak level 99.5 % Extraction speed 2.1 X Range quality 99.9 % Test CRC DFA4995E Copy CRC DFA4995E Copy OK
No errors occurred
AccurateRip summary
Track 1 accurately ripped (confidence 2) [66AEFE55] (AR v2)Track 2 accurately ripped (confidence 2) [FF796F18] (AR v2)Track 3 accurately ripped (confidence 2) [F5D85857] (AR v2)Track 4 accurately ripped (confidence 2) [F2606075] (AR v2)Track 5 accurately ripped (confidence 2) [5F537A56] (AR v2)Track 6 accurately ripped (confidence 2) [B0537E01] (AR v2)Track 7 accurately ripped (confidence 2) [00CDC37B] (AR v2)Track 8 accurately ripped (confidence 2) [E0F25A6D] (AR v2)Track 9 accurately ripped (confidence 2) [741DEAF4] (AR v2)Track 10 accurately ripped (confidence 2) [BD3C148A] (AR v2)Track 11 accurately ripped (confidence 2) [F806785E] (AR v2)Track 12 accurately ripped (confidence 2) [6E45C896] (AR v2)Track 13 accurately ripped (confidence 2) [1954110A] (AR v2)Track 14 accurately ripped (confidence 2) [FF78C813] (AR v2)Track 15 accurately ripped (confidence 2) [AF4968B7] (AR v2)Track 16 accurately ripped (confidence 2) [AA0BEAFB] (AR v2)Track 17 accurately ripped (confidence 2) [B0AB92A0] (AR v2)Track 18 accurately ripped (confidence 2) [9B1EACCB] (AR v2)
All tracks accurately ripped
End of status report
==== Log checksum 8DF4D35F32720EFD796126579B6C9FE51144CEF8EDB33AFD5FD4AAA30E0358C0 ====

Лог создания рипа: CD2

Exact Audio Copy V1.0 beta 3 from 29. August 2011
EAC extraction logfile from 26. April 2015, 20:57
Colin Carr / Bach - Cello Suites - CD2
Used drive : HL-DT-STDVDRAM GU70N Adapter: 0 ID: 0
Read mode : SecureUtilize accurate stream : YesDefeat audio cache : YesMake use of C2 pointers : No
Read offset correction : 48Overread into Lead-In and Lead-Out : NoFill up missing offset samples with silence : YesDelete leading and trailing silent blocks : NoNull samples used in CRC calculations : YesUsed interface : Native Win32 interface for Win NT & 2000
Used output format : User Defined EncoderSelected bitrate : 128 kBit/sQuality : HighAdd ID3 tag : NoCommand line compressor : C:\Program Files (x86)\Exact Audio Copy\Flac\flac.exeAdditional command line options : -V -8 -T "Date=%year%" -T "Genre=%genre%" %source%
TOC of the extracted CD
Track | Start | Length | Start sector | End sector --------------------------------------------------------- 1 | 0:00.00 | 3:30.34 | 0 | 15783 2 | 3:30.34 | 3:32.60 | 15784 | 31743 3 | 7:03.19 | 2:06.64 | 31744 | 41257 4 | 9:10.08 | 4:19.37 | 41258 | 60719 5 | 13:29.45 | 3:18.18 | 60720 | 75587 6 | 16:47.63 | 3:01.36 | 75588 | 89198 7 | 19:49.24 | 3:59.65 | 89199 | 107188 8 | 23:49.14 | 4:22.17 | 107189 | 126855 9 | 28:11.31 | 3:35.64 | 126856 | 143044 10 | 31:47.20 | 4:24.52 | 143045 | 162896 11 | 36:11.72 | 4:57.52 | 162897 | 185223 12 | 41:09.49 | 3:12.05 | 185224 | 199628 13 | 44:21.54 | 4:56.47 | 199629 | 221875 14 | 49:18.26 | 8:50.56 | 221876 | 261681 15 | 58:09.07 | 4:13.25 | 261682 | 280681 16 | 62:22.32 | 5:22.47 | 280682 | 304878 17 | 67:45.04 | 4:42.16 | 304879 | 326044 18 | 72:27.20 | 5:16.55 | 326045 | 349799
Range status and errors
Selected range
Filename C:\temp\Bach - Cello Suites - Carr\CD2\Bach - Cello Suites - CD2.wav
Peak level 99.9 % Extraction speed 2.3 X Range quality 100.0 % Test CRC 9A6AE542 Copy CRC 9A6AE542 Copy OK
No errors occurred
AccurateRip summary
Track 1 accurately ripped (confidence 2) [D487AE18] (AR v2)Track 2 accurately ripped (confidence 2) [C150BBE3] (AR v2)Track 3 accurately ripped (confidence 2) [29375908] (AR v2)Track 4 accurately ripped (confidence 2) [0F199E06] (AR v2)Track 5 accurately ripped (confidence 2) [F918F400] (AR v2)Track 6 accurately ripped (confidence 2) [CBAE45DF] (AR v2)Track 7 accurately ripped (confidence 2) [16629E48] (AR v2)Track 8 accurately ripped (confidence 2) [BDD2C493] (AR v2)Track 9 accurately ripped (confidence 2) [E995AB11] (AR v2)Track 10 accurately ripped (confidence 2) [87BA124F] (AR v2)Track 11 accurately ripped (confidence 2) [D727903B] (AR v2)Track 12 accurately ripped (confidence 2) [48F7207A] (AR v2)Track 13 accurately ripped (confidence 2) [E17C75A2] (AR v2)Track 14 accurately ripped (confidence 2) [1C0285F2] (AR v2)Track 15 accurately ripped (confidence 2) [B75A4674] (AR v2)Track 16 accurately ripped (confidence 2) [04531BD6] (AR v2)Track 17 accurately ripped (confidence 2) [8F278F4B] (AR v2)Track 18 accurately ripped (confidence 2) [4A4292DE] (AR v2)
All tracks accurately ripped
End of status report
==== Log checksum 519D345DB0BE960A43177D2799C0C4AE6E0DA5C89F7AA6FF8C931541A3861D9F ====



Показать сообщения:    

Текущее время: 04-Дек 00:54

Часовой пояс: UTC + 3


Вы не можете начинать темы
Вы не можете отвечать на сообщения
Вы не можете редактировать свои сообщения
Вы не можете удалять свои сообщения
Вы не можете голосовать в опросах
Вы не можете прикреплять файлы к сообщениям
Вы не можете скачивать файлы