Юбилейный вечер Валентина Гафта 2016.01.09 [2016, Pop, HDTV 1080i]


Статистика раздачи [Обновить пиров]
Размер:  8.39 GB   |    Зарегистрирован:  10 месяцев 28 дней   |    Скачан:  1 раз

Полного источника не было: 2 дня 20 часов

 
   
 
 
 

[Цитировать]

Юбилейный вечер Валентина Гафта 2016.01.09
Жанр: Pop
Продолжительность: 01:30:19
Год выпуска: 2016
Ведущие: Виктория Романенко, Чулпан Хаматова, Никита Ефремов, Александр Олешко
Описание: Валентин Гафт не любит пышных торжеств и повышенного внимания к своей персоне, но к мероприятиям в честь своего 80-летия отнёсся по-философски спокойно.
Ведущие вечера Виктория Романенко, Чулпан Хаматова, Никита Ефремов и Александр Олешко прочли эпиграммы знаменитых людей, написанных в свое время на Гафта, но все равно превзойти талант юбиляра не мог, разумеется, никто. Самый большой успех вызывали строчки, сочиненные самим Гафтом. "Тем, у кого таланта нет ни грамма, от Гафта не дождаться эпиграммы", - подытожил Михаил Ефремов. Помимо него стихи читали Игорь Золотовицкий и Геннадий Хазанов, молодые артисты "Современника" и даже представители футбольного клуба "Спартак", за который юбиляр болеет с детства ...
Треклист: требуется помощь
Источник: собственный рип
Качество: HDTV 1080i
Контейнер: TS
Видео кодек: H.264
Аудио кодек: AC3, MP2
Видео: H264; 1920x1080 (16:9); 25.000 fps; ~12 100 Kbps
Аудио: AC3, 6 channels, 48000Hz, 384 Кбит/сек
Аудио 2: MP2, 2 channels, 48000Hz, 192 Кбит/сек

Отчёт MediaInfo / BDInfo

GeneralID : 1 (0x1)Complete name : D:\Юбилейный вечер Валентина Гафта. (2016)_DVB by kuzmichm2196.tsFormat : MPEG-TSFile size : 8.39 GiBDuration : 1h 30mnOverall bit rate mode : VariableOverall bit rate : 13.3 Mbps
VideoID : 305 (0x131)Menu ID : 20105 (0x4E89)Format : AVCFormat/Info : Advanced Video CodecFormat profile : Main@L4.0Format settings, CABAC : YesFormat settings, ReFrames : 4 framesCodec ID : 27Duration : 1h 30mnBit rate : 12.1 MbpsWidth : 1 920 pixelsHeight : 1 080 pixelsDisplay aspect ratio : 16:9Frame rate : 25.000 fpsStandard : ComponentColor space : YUVChroma subsampling : 4:2:0Bit depth : 8 bitsScan type : InterlacedScan order : Top Field FirstBits/(Pixel*Frame) : 0.233Stream size : 7.61 GiB (91%)Color primaries : BT.709Transfer characteristics : BT.709Matrix coefficients : BT.709Color range : Limited
Audio #1ID : 405 (0x195)Menu ID : 20105 (0x4E89)Format : AC-3Format/Info : Audio Coding 3Mode extension : CM (complete main)Format settings, Endianness : BigCodec ID : 6Duration : 1h 30mnBit rate mode : ConstantBit rate : 384 KbpsChannel(s) : 6 channelsChannel positions : Front: L C R, Side: L R, LFESampling rate : 48.0 KHzBit depth : 16 bitsCompression mode : LossyDelay relative to video : -80msStream size : 248 MiB (3%)Language : Russian
Audio #2ID : 406 (0x196)Menu ID : 20105 (0x4E89)Format : MPEG AudioFormat version : Version 1Format profile : Layer 2Codec ID : 3Duration : 1h 30mnBit rate mode : ConstantBit rate : 192 KbpsChannel(s) : 2 channelsSampling rate : 48.0 KHzCompression mode : LossyDelay relative to video : -80msStream size : 124 MiB (1%)Language : Russian

Скриншоты

[teatrix.ru].t12708.torrent 
Торрент: Зарегистрирован [ 2016-01-10 21:20 ] · 6C31A8CB049A59DA75B0BB2DFAC27757304F91B8

Скачать .torrent

Скачать

42 KB

Статус: проверено
Скачан: 1 раз
Размер: 8.39 GB
terms.php



Быстрый ответ

Имя:

      
Для отправки сообщений необходимо включить JavaScript
Показать сообщения:    

Текущее время: 08-Дек 12:57

Часовой пояс: UTC + 3


Вы можете начинать темы
Вы можете отвечать на сообщения
Вы не можете редактировать свои сообщения
Вы не можете удалять свои сообщения
Вы не можете голосовать в опросах
Вы не можете прикреплять файлы к сообщениям
Вы можете скачивать файлы