Игорь Тальков. Приговорённый [2015 г., документальный, DVB]


Статистика раздачи [Обновить пиров]
Размер:  2.02 GB   |    Зарегистрирован:  11 месяцев   |    Скачан:  0 раз

Полного источника не было: Никогда

Личеров:  4  [  0 KB/s  ]   Подробная статистика пиров
 
   
 
 
 

[Цитировать]

Игорь Тальков. Приговорённый
Год выпуска: 2015
Страна: Россия
Жанр: документальный
Продолжительность: 01:37:59
Телеканал: РЕН ТВ
Описание: Кто убил Игоря Талькова? Что происходило в последние дни его жизни? И какие мистические знаки окружали жизнь самого знаменитого певца времён перестройки? Фильм «Игорь Тальков: приговорённый» ответит на все эти вопросы и расскажет, каким человеком на самом деле был музыкант. Большинство современных слушателей знает Игоря Талькова как исполнителя лиричных песен про Чистые пруды и белогвардейскую шинель. Но правда ли, что с Тальковым было очень тяжело сработаться? За что певец не любил зарождающийся российский шоу-бизнес и почему часто окружал себя сомнительными персонажами из преступного мира? Как развивались его отношения с женщинами? Фильм расскажет множество подробностей о жизни, творчестве и смерти музыканта. А свои комментарии дадут самые близкие друзья и коллеги Талькова: Юрий Лоза, Ирина Аллегрова, Павел Глоба и другие.
Доп. информация: огромная благодарность xfiles за исходник DVB!
Качество: DVB
Формат: MPG
Видео: MPEG2 Video 720x576 (16:9) 25fps 2704kbps
Аудио: MPEG Audio 48000Hz stereo 192kbps

Анаморфированные скриншоты



Подробные технические данные

GeneralComplete name : Игорь Тальков. Приговорённый (2015) [РЕН ТВ].mpgFormat : MPEG-PSFile size : 2.02 GiBDuration : 1h 37mnOverall bit rate mode : VariableOverall bit rate : 2 955 KbpsWriting library : (dvd5: Oct 27 2015)
VideoID : 224 (0xE0)Format : MPEG VideoFormat version : Version 2Format profile : Main@MainFormat settings, BVOP : YesFormat settings, Matrix : CustomFormat settings, GOP : VariableFormat settings, picture struc : FrameDuration : 1h 37mnBit rate mode : VariableBit rate : 2 704 KbpsMaximum bit rate : 15.0 MbpsWidth : 720 pixelsHeight : 576 pixelsDisplay aspect ratio : 16:9Frame rate : 25.000 fpsStandard : PALColor space : YUVChroma subsampling : 4:2:0Bit depth : 8 bitsScan type : InterlacedScan order : Top Field FirstCompression mode : LossyBits/(Pixel*Frame) : 0.261Time code of first frame : 00:00:00:00Time code source : Group of pictures headerGOP, Open/Closed : OpenStream size : 1.85 GiB (92%)Writing library : (dvd5: Oct 27 2015)
AudioID : 192 (0xC0)Format : MPEG AudioFormat version : Version 1Format profile : Layer 2Mode : Dual monoDuration : 1h 37mnBit rate mode : ConstantBit rate : 192 KbpsChannel(s) : 2 channelsSampling rate : 48.0 KHzCompression mode : LossyStream size : 135 MiB (6%)
[teatrix.ru].t12709.torrent 
Торрент: Зарегистрирован [ 2016-01-10 21:20 ] · 398F8F01530B8C7F66003892CF33ECAE61518802

Скачать .torrent

Скачать

11 KB

Статус: проверено
Скачан: 0 раз
Размер: 2.02 GB
terms.php



Быстрый ответ

Имя:

      
Для отправки сообщений необходимо включить JavaScript
Показать сообщения:    

Текущее время: 11-Дек 14:57

Часовой пояс: UTC + 3


Вы можете начинать темы
Вы можете отвечать на сообщения
Вы не можете редактировать свои сообщения
Вы не можете удалять свои сообщения
Вы не можете голосовать в опросах
Вы не можете прикреплять файлы к сообщениям
Вы можете скачивать файлы