Одержимость / Whiplash (Дэмьен Шазелл / Damien Chazelle) [2014, США, музыкальная драма, HDRip] MVO (Первый Канал)


 

[Цитировать]

Одержимость / Whiplash
Страна: США
Жанр: музыкальная драма
Год выпуска: 2014
Продолжительность: 01:46:45
Перевод: Профессиональный (многоголосый закадровый) Первый Канал
Cубтитры: нет
Режиссер: Дэмьен Шазелл / Damien Chazelle
В ролях: Майлз Теллер, Дж.К. Симмонс, Пол Райзер, Мелисса Бенойст, Остин Стоуэлл, Нат Лэнг, Крис Малки, Дэймон Гаптон и др.
Описание:
Первокурсник консерватории Эндрю Ниман грезит стать великим музыкантом. Казалось бы, вот-вот его мечта осуществится. Юношу замечает настоящий гений - дирижер лучшего в стране оркестра Теренс Флетчер. Однако желание Эндрю добиться успеха быстро превращается в одержимость, а безжалостный наставник продолжает подталкивать его все дальше и дальше - за пределы человеческих возможностей.
Доп. информация:
Рип с BDRip 1080p@hdclub (СЭМПЛ)
Запись перевода Первого Канала с эфира от 9.01.2016. Часть ролей озвучивали Олег Куценко и Никита Прозоровский.

Отчет MediaInfo

General
Complete name : C:\Whiplash.2014.HDRip-MVO.avi
Format : AVI
Format/Info : Audio Video Interleave
File size : 1.46 GiB
Duration : 1h 46mn
Overall bit rate : 1 958 Kbps
Writing application : VirtualDubMod 1.5.10.2 (build 2540/release)
Writing library : VirtualDubMod build 2540/release
Video
ID : 0
Format : MPEG-4 Visual
Format profile : Advanced Simple@L5
Format settings, BVOP : Yes
Format settings, QPel : No
Format settings, GMC : No warppoints
Format settings, Matrix : Default (MPEG)
Codec ID : XVID
Codec ID/Hint : XviD
Duration : 1h 46mn
Bit rate : 1 757 Kbps
Width : 720 pixels
Height : 304 pixels
Display aspect ratio : 2.35:1
Frame rate : 23.976 fps
Color space : YUV
Chroma subsampling : 4:2:0
Bit depth : 8 bits
Scan type : Progressive
Compression mode : Lossy
Bits/(Pixel*Frame) : 0.335
Stream size : 1.31 GiB (90%)
Writing library : XviD 64
Audio
ID : 1
Format : AC-3
Format/Info : Audio Coding 3
Mode extension : CM (complete main)
Format settings, Endianness : Big
Codec ID : 2000
Duration : 1h 46mn
Bit rate mode : Constant
Bit rate : 192 Kbps
Channel count : 2 channels
Channel positions : Front: L R
Sampling rate : 48.0 KHz
Bit depth : 16 bits
Compression mode : Lossy
Stream size : 147 MiB (10%)
Alignment : Split accross interleaves
Interleave, duration : 42 ms (1.00 video frame)
Interleave, preload duration : 500 ms
Качество видео: HDRip
Формат видео: AVI
Видео: 720x304, 23.976 fps, XviD ~1757 kbps avg
Аудио: 48 kHz, AC3 Dolby Digital, 2/0 (L,R) ch, ~192 kbps [Первый Канал] TVRip

скриншоты





Показать сообщения:    

Текущее время: 09-Дек 08:52

Часовой пояс: UTC + 3


Вы не можете начинать темы
Вы не можете отвечать на сообщения
Вы не можете редактировать свои сообщения
Вы не можете удалять свои сообщения
Вы не можете голосовать в опросах
Вы не можете прикреплять файлы к сообщениям
Вы не можете скачивать файлы