Верхом на дельфине (Борис Голубовский) [1970, Драма, WEB-DLRip] Московский драматический театр им. Н. В. Гоголя


 

[Цитировать]

Верхом на дельфине
Название театра: Московский драматический театр им. Н. В. Гоголя
Жанр: социальная драма
Год выпуска: 1970
Продолжительность: 02:40:10
Режиссёр: Борис Голубовский
В ролях: Анатолий Иванов, Людмила Долгорукова, Николай Алексеев, Гарри Бардин, Валентина Асланова
Описание: Действие происходит в редакции крупной столичной газеты. Талантливый журналист Егор Королев, чьи острые фельетоны всегда в центре внимания, получает от жизни жестокий урок за самоуверенность. В газете выходит фельетон о самом Королеве, его безответственном, поверхностном отношении к открытию нового лекарства. Фельетон ставит под угрозу дальнейшую карьеру журналиста, но написан он по его просьбе - иначе было невозможно восстановить справедливость.
Доп. информация:
По одноименной пьесе Леонида Жуховицкого "Остановиться, оглянуться" в постановке Московского драматического театра им. Н.В. Гоголя.
Семпл: http://multi-up.com/1083549
Качество видео: WEB-DLRip
Формат видео: AVI
Видео: XVID; 640x480; 4:3; 25.000 fps; 1200 Kbps
Аудио: Rus; MP3; 44.1 KHz; 128 Kbps; 2 channels

MediaInfo

General
Format : AVI
Format/Info : Audio Video Interleave
File size : 1.50 GiB
Duration : 2h 40mn
Overall bit rate : 1 338 Kbps
Writing application : MEncoder SVN-r22963
Writing library : Boilsoft AVI tool build 30012/release
Video #0
ID : 0
Format : MPEG-4 Visual
Format profile : Simple@L1
Format settings, BVOP : No
Format settings, QPel : No
Format settings, GMC : No warppoints
Format settings, Matrix : Default (H.263)
Codec ID : XVID
Codec ID/Hint : XviD
Duration : 2h 40mn
Bit rate : 1 200 Kbps
Width : 640 pixels
Height : 480 pixels
Display aspect ratio : 4:3
Frame rate : 25.000 fps
Color space : YUV
Chroma subsampling : 4:2:0
Bit depth : 8 bits
Scan type : Progressive
Compression mode : Lossy
Bits/(Pixel*Frame) : 0.156
Stream size : 1.34 GiB (90%)
Writing library : Lavc51.40.2
Audio #1
ID : 1
Format : MPEG Audio
Format version : Version 1
Format profile : Layer 3
Codec ID : 55
Codec ID/Hint : MP3
Duration : 2h 40mn
Bit rate mode : Constant
Bit rate : 128 Kbps
Channel(s) : 2 channels
Sampling rate : 44.1 KHz
Compression mode : Lossy
Stream size : 147 MiB (10%)
Alignment : Split accross interleaves
Interleave, duration : 40 ms (1.00 video frame)
Interleave, preload duration : 500 ms
Writing library : LAME3.97

Скриншот с названием постановки

Скриншоты









Показать сообщения:    

Текущее время: 07-Дек 23:18

Часовой пояс: UTC + 3


Вы не можете начинать темы
Вы не можете отвечать на сообщения
Вы не можете редактировать свои сообщения
Вы не можете удалять свои сообщения
Вы не можете голосовать в опросах
Вы не можете прикреплять файлы к сообщениям
Вы не можете скачивать файлы