(Classical) Franz Schubert — Symphonies № 9 & 8 (D 944 & 759) (Charles Mackerras) — 1998, FLAC (tracks+.cue) lossless


 

[Цитировать]

Symphonies № 9 & 8 (D 944 & 759)-
Жанр: Classical
Страна-производитель диска: США
Издатель (лейбл): Telarc
Номер по каталогу: TLC 80502
Год издания диска: October, 27, 1998
Год записи фонограммы: 10.03.1998-12.03.1998, Caird Hall, Dundee, Scotland
Композитор: Franz Schubert
Исполнительский коллектив: Scottish Chamber Orchestra under Sir Charles Mackerras
Аудио кодек: flac
Тип рипа: tracks+.cue
Битрейт аудио: lossless
Продолжительность: 01h19'29"
Источник: web
Наличие сканов в содержимом раздачи: да-Треклист:
(01-04) Symphony № 9 C-Dur D 944 «The Great» [54'54"]
(05-06) Symphony № 8 h-moll D 759 «Unfinished» [24'34"]-

XLD log

X Lossless Decoder version 20121222 (142.2)
XLD extraction logfile from 2013-01-19 15:37:04 -0600
Scottish Chamber Orchestra, Sir Charles Mackerras / Schubert: Symphonies Nos. 8 and 9
Used drive : MATSHITA DVD-R   UJ-898 (revision HC10)
Media type : Pressed CD
Ripper mode             : XLD Secure Ripper
Disable audio cache     : OK for the drive with a cache less than 1375KiB
Make use of C2 pointers : NO
Read offset correction  : 102
Max retry count         : 100
Gap status              : Analyzed, Appended (except HTOA)
TOC of the extracted CD
     Track |   Start  |  Length  | Start sector | End sector
    ---------------------------------------------------------
        1  | 00:00:00 | 15:48:65 |         0    |    71164
        2  | 15:48:65 | 14:18:15 |     71165    |   135529
        3  | 30:07:05 | 09:46:45 |    135530    |   179524
        4  | 39:53:50 | 15:00:57 |    179525    |   247081
        5  | 54:54:32 | 14:03:33 |    247082    |   310339
        6  | 68:57:65 | 10:31:00 |    310340    |   357664
AccurateRip Summary (DiscID: 0013db3b-0068cc9e-5a12a006)
    Track 01 : OK (v1+v2, confidence 11/19)
    Track 02 : OK (v1+v2, confidence 11/19)
    Track 03 : OK (v1+v2, confidence 11/19)
    Track 04 : OK (v1+v2, confidence 11/18)
    Track 05 : OK (v1+v2, confidence 10/18)
    Track 06 : OK (v1+v2, confidence 10/16)
        ->All tracks accurately ripped.
All Tracks
    Album gain               : 2.22 dB
    Peak                     : 0.973175
    Statistics
        Read error                           : 0
        Jitter error (maybe fixed)           : 0
        Retry sector count                   : 0
        Damaged sector count                 : 0
Track 01
    Filename : /Users/jpruitt/Desktop/Scottish Chamber Orchestra, Sir Charles Mackerras - Schubertпјљ Symphonies Nos. 8 and 9 (1998) [FLAC]/Disc 01/01 - Symphony No. 9 in C major, D 944 "The Great" - I. Andante - Allegro ma non troppo.flac
    Pre-gap length : 00:02:00
    Track gain               : 1.09 dB
    Peak                     : 0.908051
    CRC32 hash (test run)    : A3C0294A
    CRC32 hash               : A3C0294A
    CRC32 hash (skip zero)   : 54FE318C
    AccurateRip v1 signature : 3BC843A8
    AccurateRip v2 signature : 238E3DF0
        ->Accurately ripped (v1+v2, confidence 9+2/19)
    Statistics
        Read error                           : 0
        Jitter error (maybe fixed)           : 0
        Retry sector count                   : 0
        Damaged sector count                 : 0
Track 02
    Filename : /Users/jpruitt/Desktop/Scottish Chamber Orchestra, Sir Charles Mackerras - Schubertпјљ Symphonies Nos. 8 and 9 (1998) [FLAC]/Disc 01/02 - Symphony No. 9 in C major, D 944 "The Great" - II. Andante con moto.flac
    Pre-gap length : 00:05:13
    Track gain               : 3.89 dB
    Peak                     : 0.973175
    CRC32 hash (test run)    : A261842A
    CRC32 hash               : A261842A
    CRC32 hash (skip zero)   : 5996A75E
    AccurateRip v1 signature : 70999569
    AccurateRip v2 signature : D4DA38AE
        ->Accurately ripped (v1+v2, confidence 9+2/19)
    Statistics
        Read error                           : 0
        Jitter error (maybe fixed)           : 0
        Retry sector count                   : 0
        Damaged sector count                 : 0
Track 03
    Filename : /Users/jpruitt/Desktop/Scottish Chamber Orchestra, Sir Charles Mackerras - Schubertпјљ Symphonies Nos. 8 and 9 (1998) [FLAC]/Disc 01/03 - Symphony No. 9 in C major, D 944 "The Great" - III. Scherzo. Allegro vivace - Trio.flac
    Pre-gap length : 00:04:18
    Track gain               : 6.19 dB
    Peak                     : 0.498383
    CRC32 hash (test run)    : 47CDE734
    CRC32 hash               : 47CDE734
    CRC32 hash (skip zero)   : EFC185F5
    AccurateRip v1 signature : FC779519
    AccurateRip v2 signature : 17D7290C
        ->Accurately ripped (v1+v2, confidence 9+2/19)
    Statistics
        Read error                           : 0
        Jitter error (maybe fixed)           : 0
        Retry sector count                   : 0
        Damaged sector count                 : 0
Track 04
    Filename : /Users/jpruitt/Desktop/Scottish Chamber Orchestra, Sir Charles Mackerras - Schubertпјљ Symphonies Nos. 8 and 9 (1998) [FLAC]/Disc 01/04 - Symphony No. 9 in C major, D 944 "The Great" - IV. Finale. Allegro vivace.flac
    Pre-gap length : 00:04:35
    Track gain               : 1.50 dB
    Peak                     : 0.884583
    CRC32 hash (test run)    : E952C4A2
    CRC32 hash               : E952C4A2
    CRC32 hash (skip zero)   : B7297687
    AccurateRip v1 signature : 100594DE
    AccurateRip v2 signature : CBE885BA
        ->Accurately ripped (v1+v2, confidence 9+2/18)
    Statistics
        Read error                           : 0
        Jitter error (maybe fixed)           : 0
        Retry sector count                   : 0
        Damaged sector count                 : 0
Track 05
    Filename : /Users/jpruitt/Desktop/Scottish Chamber Orchestra, Sir Charles Mackerras - Schubertпјљ Symphonies Nos. 8 and 9 (1998) [FLAC]/Disc 01/05 - Symphony No. 8 in B minor, D 759 "Unfinished" - I. Allegro moderato.flac
    Pre-gap length : 00:07:12
    Track gain               : 1.57 dB
    Peak                     : 0.801453
    CRC32 hash (test run)    : 036F1E72
    CRC32 hash               : 036F1E72
    CRC32 hash (skip zero)   : 796B1323
    AccurateRip v1 signature : 1CB818F6
    AccurateRip v2 signature : 1DE4E408
        ->Accurately ripped (v1+v2, confidence 8+2/18)
    Statistics
        Read error                           : 0
        Jitter error (maybe fixed)           : 0
        Retry sector count                   : 0
        Damaged sector count                 : 0
Track 06
    Filename : /Users/jpruitt/Desktop/Scottish Chamber Orchestra, Sir Charles Mackerras - Schubertпјљ Symphonies Nos. 8 and 9 (1998) [FLAC]/Disc 01/06 - Symphony No. 8 in B minor, D 759 "Unfinished" - II. Andante con moto.flac
    Pre-gap length : 00:05:03
    Track gain               : 3.47 dB
    Peak                     : 0.641449
    CRC32 hash (test run)    : A78FEC6C
    CRC32 hash               : A78FEC6C
    CRC32 hash (skip zero)   : 6842DBD8
    AccurateRip v1 signature : F127E07A
    AccurateRip v2 signature : A84EB004
        ->Accurately ripped (v1+v2, confidence 8+2/16)
    Statistics
        Read error                           : 0
        Jitter error (maybe fixed)           : 0
        Retry sector count                   : 0
        Damaged sector count                 : 0
No errors occurred
End of status report

-

CUE

TITLE "Schubert: Symphonies Nos. 8 and 9"
PERFORMER "Scottish Chamber Orchestra, Sir Charles Mackerras"
REM DATE "1998"
REM DISCID 5A12A006
REM REPLAYGAIN_ALBUM_GAIN 2.22 dB
REM REPLAYGAIN_ALBUM_PEAK 0.973175
FILE "01 - Symphony No. 9 in C major, D 944 "The Great" - I. Andante - Allegro ma non troppo.flac" WAVE
  TRACK 01 AUDIO
    TITLE "Symphony No. 9 in C major, D 944 "The Great" - I. Andante - Allegro ma non troppo"
    PERFORMER "Scottish Chamber Orchestra, Sir Charles Mackerras"
    SONGWRITER "Franz Schubert"
    REM REPLAYGAIN_TRACK_GAIN 1.09 dB
    REM REPLAYGAIN_TRACK_PEAK 0.908051
    INDEX 01 00:00:00
  TRACK 02 AUDIO
    TITLE "Symphony No. 9 in C major, D 944 "The Great" - II. Andante con moto"
    PERFORMER "Scottish Chamber Orchestra, Sir Charles Mackerras"
    SONGWRITER "Franz Schubert"
    REM REPLAYGAIN_TRACK_GAIN 3.89 dB
    REM REPLAYGAIN_TRACK_PEAK 0.973175
    INDEX 00 15:43:52
FILE "02 - Symphony No. 9 in C major, D 944 "The Great" - II. Andante con moto.flac" WAVE
    INDEX 01 00:00:00
  TRACK 03 AUDIO
    TITLE "Symphony No. 9 in C major, D 944 "The Great" - III. Scherzo. Allegro vivace - Trio"
    PERFORMER "Scottish Chamber Orchestra, Sir Charles Mackerras"
    SONGWRITER "Franz Schubert"
    REM REPLAYGAIN_TRACK_GAIN 6.19 dB
    REM REPLAYGAIN_TRACK_PEAK 0.498383
    INDEX 00 14:13:72
FILE "03 - Symphony No. 9 in C major, D 944 "The Great" - III. Scherzo. Allegro vivace - Trio.flac" WAVE
    INDEX 01 00:00:00
  TRACK 04 AUDIO
    TITLE "Symphony No. 9 in C major, D 944 "The Great" - IV. Finale. Allegro vivace"
    PERFORMER "Scottish Chamber Orchestra, Sir Charles Mackerras"
    SONGWRITER "Franz Schubert"
    REM REPLAYGAIN_TRACK_GAIN 1.50 dB
    REM REPLAYGAIN_TRACK_PEAK 0.884583
    INDEX 00 09:42:10
FILE "04 - Symphony No. 9 in C major, D 944 "The Great" - IV. Finale. Allegro vivace.flac" WAVE
    INDEX 01 00:00:00
  TRACK 05 AUDIO
    TITLE "Symphony No. 8 in B minor, D 759 "Unfinished" - I. Allegro moderato"
    PERFORMER "Scottish Chamber Orchestra, Sir Charles Mackerras"
    REM REPLAYGAIN_TRACK_GAIN 1.57 dB
    REM REPLAYGAIN_TRACK_PEAK 0.801453
    INDEX 00 14:53:45
FILE "05 - Symphony No. 8 in B minor, D 759 "Unfinished" - I. Allegro moderato.flac" WAVE
    INDEX 01 00:00:00
  TRACK 06 AUDIO
    TITLE "Symphony No. 8 in B minor, D 759 "Unfinished" - II. Andante con moto"
    PERFORMER "Scottish Chamber Orchestra, Sir Charles Mackerras"
    REM REPLAYGAIN_TRACK_GAIN 3.47 dB
    REM REPLAYGAIN_TRACK_PEAK 0.641449
    INDEX 00 13:58:30
FILE "06 - Symphony No. 8 in B minor, D 759 "Unfinished" - II. Andante con moto.flac" WAVE
    INDEX 01 00:00:00
-



Показать сообщения:    

Текущее время: 03-Дек 16:45

Часовой пояс: UTC + 3


Вы не можете начинать темы
Вы не можете отвечать на сообщения
Вы не можете редактировать свои сообщения
Вы не можете удалять свои сообщения
Вы не можете голосовать в опросах
Вы не можете прикреплять файлы к сообщениям
Вы не можете скачивать файлы