Потоки любви / Love Streams (Джон Кассаветес / John Cassavetes) [1984, США, драма, BDRip] DVO (НТВ+) + MVO (ТВ Центр) + Sub Eng + Original Eng


 

[Цитировать]

Потоки любви / Love Streams
Страна: США
Жанр: драма
Год выпуска: 1984
Продолжительность: 02:21:15
Перевод: Профессиональный (двухголосый закадровый) - НТВ+
Перевод: Профессиональный (многоголосый закадровый) - ТВ Центр
Cубтитры: английские
Оригинальная аудиодорожка: английский

Режиссер: Джон Кассаветес / John Cassavetes
В ролях: Джина Роулэндс, Джон Кассаветис, Дайэнн Эбботт, Сеймур Кэссел, Маргарет Эбботт, Джейкоб Шо, Эдди Донно, Джоан Фоли, Эл Рубан, Том Бадал
Описание: Роберт Хармон, успешный автор эротических романов живет вместе с двенадцатилетним сыном в большом доме, окруженный толпой случайных любовниц, без конца курит сигареты и не расстается с бутылкой. Когда он остается один, его навещает любимая сестра Сара. Она находится на грани нервного срыва из-за того, что ее дочь после развода предпочла жить со своим отцом.
Запертые в огромном доме, брат и сестра проводят целые дни наедине друг с другом, болтая о вещах важных и не слишком, о том, что их волнует и о том, что волновать уже не будет. В один из дней Сара решает уехать, оставив Роберта наедине с самим собой.

Качество видео: BDRip
Формат видео: AVI
Видео: 720x384 (1.88:1), 23.976 fps, XviD build 73 ~1820 kbps avg, 0.27 bit/pixel
Аудио: 48 kHz, AC3 Dolby Digital, 2/0 (L,R) ch, ~192 kbps - двухголосый
Аудио: 48 kHz, AC3 Dolby Digital, 2/0 (L,R) ch, ~192 kbps - многоголосый
Аудио: 48 kHz, AC3 Dolby Digital, 1 ch, ~192 kbps - оригинал (отдельным файлом)

MediaInfo

Общее
Полное имя : H:\Love.Streams.1984.bdrip_[2.18]_[teko]\Love.Streams.1984.bdrip_[2.18].avi
Формат : AVI
Формат/Информация : Audio Video Interleave
Профиль формата : OpenDML
Размер файла : 2,16 Гбайт
Продолжительность : 2 ч. 21 м.
Общий поток : 2186 Кбит/сек
Программа кодирования : VirtualDubMod 1.5.10.3 | www.virtualdub-fr.org || (build 2550/release)
Библиотека кодирования : VirtualDubMod build 2550/release
Видео
Идентификатор : 0
Формат : MPEG-4 Visual
Профиль формата : Advanced Simple@L5
Параметр BVOP формата : 1
Параметр QPel формата : Нет
Параметр GMC формата : Без точки перехода
Параметр матрицы формата : Выборочная
Идентификатор кодека : XVID
Идентификатор кодека/Подсказка : XviD
Продолжительность : 2 ч. 21 м.
Битрейт : 1816 Кбит/сек
Ширина : 720 пикселей
Высота : 384 пикселя
Соотношение сторон : 1,85:1
Частота кадров : 23,976 кадра/сек
Цветовое пространство : YUV
Субдискретизация насыщенности : 4:2:0
Битовая глубина : 8 бит
Тип развёртки : Прогрессивная
Метод сжатия : С потерями
Бит/(Пиксели*Кадры) : 0.274
Размер потока : 1,79 Гбайт (83%)
Библиотека кодирования : XviD 73
Аудио #1
Идентификатор : 1
Формат : AC-3
Формат/Информация : Audio Coding 3
Расширение режима : CM (complete main)
Параметр Endianness формата : Big
Идентификатор кодека : 2000
Продолжительность : 2 ч. 21 м.
Вид битрейта : Постоянный
Битрейт : 192 Кбит/сек
Каналы : 2 канала
Расположение каналов : Front: L R
Частота : 48,0 КГц
Битовая глубина : 16 бит
Метод сжатия : С потерями
Размер потока : 194 Мбайт (9%)
Выравнивание : Разделение по промежуткам
Продолжительность промежутка : 42 мс. (1,00 видеокадр)
Время предзагрузки промежутка : 500 мс.
Аудио #2
Идентификатор : 2
Формат : AC-3
Формат/Информация : Audio Coding 3
Расширение режима : CM (complete main)
Параметр Endianness формата : Big
Идентификатор кодека : 2000
Продолжительность : 2 ч. 21 м.
Вид битрейта : Постоянный
Битрейт : 160 Кбит/сек
Каналы : 2 канала
Расположение каналов : Front: L R
Частота : 48,0 КГц
Битовая глубина : 16 бит
Метод сжатия : С потерями
Размер потока : 162 Мбайт (7%)
Выравнивание : Разделение по промежуткам
Продолжительность промежутка : 42 мс. (1,00 видеокадр)
Время предзагрузки промежутка : 500 мс.



Показать сообщения:    

Текущее время: 05-Дек 11:32

Часовой пояс: UTC + 3


Вы не можете начинать темы
Вы не можете отвечать на сообщения
Вы не можете редактировать свои сообщения
Вы не можете удалять свои сообщения
Вы не можете голосовать в опросах
Вы не можете прикреплять файлы к сообщениям
Вы не можете скачивать файлы