Заповедник (Михаил Зонненштраль, Ольга Анохина) [1999 г., драма, экранизация, TVRip] Московской Государственный академический театр им. Моссовета


 

[Цитировать]

Заповедник (2 части) Название театра: Московской Государственный академический театр им. Моссовета.
Год выпуска: 1999.
Жанр: драма, экранизация.
Продолжительность: 01:00:04 + 01:00:10 (02:00:14).
Режиссеры:
Михаил Зонненштраль
, Ольга Анохина, Константин Антропов.
Действующие лица и исполнители:
Борис Алиханов - Дмитрий Журавлев,
Таня, его жена - Ольга Моховая,
Маша, его дочь - Даша Ганичева,
Майор Беляев - Владимир Горюшин,
Аврора - Ольга Анохина,
Леня - Александр Бобровский,
Марианна Петровна - Нина Коновалова,
Михал Иваныч - Виктор Гордеев,
Толик - Юрий Черкасов,
Натэлла - Елена Бероева,
Валера Марков - Эдуард Стёпин,
Потоцкий - Андрей Рапопорт,
Турист - Александр Пискарев,
Туристка - заслуженная артистка РСФСР Наталья Ткачёва,
Александр Сергеевич - Юрий Черкасов.
Описание:
В основе спектакля — одноименная повесть Сергея Довлатова. Она во многом автобиографична и рассказывает о вечном конфликте талантливого писателя с самим собой и власть предержащими. Это последняя режиссерская работа трагически погибшего Михаила Зонненштраля, законченная под руководством Ольги Анохиной.
Дополнительная информация:
Страна: Россия .
Выпущено: © Московской Государственный академический театр им. Моссовета, © ГТРК "Культура".
Автор: Сергей Довлатов.
Постановка спектакля:
Михаил Зонненштраль
.
Режиссер спектакля: Ольга Анохина.
Авторы сценария:
Михаил Зонненштраль
, Ольга Анохина.
Художник: Мария Рыбасова.
Художник по костюмам: Наталья Арутюнова.
Музыкальное оформление: Матвей Костолевский.
Режиссер по пластике: Владимир Аносов.
Режиссер телеверсии: Константин Антропов.
Операторы: Юрий Журавлёв.
Запись: 28.02.1999 года.


О спектакле.
Релиз
Большое спасибо SKEnic за предоставленный материал!!!

Качество видео:...TVRip
Формат:.................AVI

Видео

1-я часть - 656x496 (1.32:1), 25 fps, XviD build 73 ~1538 kbps avg, 0.19 bit/pixel,
1-я часть - 656x496 (1.32:1), 25 fps, XviD build 73 ~1595 kbps avg, 0.20 bit/pixel
Аудио:..48 kHz, MPEG Layer 3, 2 ch, ~128.00 kbps avg

Отчет MI

1-я часть
Общее
Полное имя : Zapovednik_Moskovskij.GAT.im.Mossoveta.(2.chasti).1999.XviD.TVRip.fenixclub\Zapovednik_Moskovskij.GAT.im.Mossoveta.1999.(1-ya.chast').avi
Format : AVI
Format/Info : Audio Video Interleave
File size : 720 MiB
Duration : 1h 0mn
Overall bit rate : 1 676 Kbps
Writing application : VirtualDubMod 1.5.10.3 | www.virtualdub-fr.org || (build 2550/release)
Writing library : VirtualDubMod build 2550/release
Video
ID : 0
Format : MPEG-4 Visual
Format profile : Advanced Simple@L5
Format settings, BVOP : 2
Format settings, QPel : No
Format settings, GMC : No warppoints
Format settings, Matrix : Custom
Codec ID : XVID
Codec ID/Hint : XviD
Duration : 1h 0mn
Bit rate : 1 539 Kbps
Width : 656 pixels
Height : 496 pixels
Display aspect ratio : 4:3
Frame rate : 25.000 fps
Color space : YUV
Chroma subsampling : 4:2:0
Bit depth : 8 bits
Scan type : Progressive
Compression mode : Lossy
Bits/(Pixel*Frame) : 0.189
Stream size : 661 MiB (92%)
Writing library : XviD 73
Audio
ID : 1
Format : MPEG Audio
Format version : Version 1
Format profile : Layer 3
Codec ID : 55
Codec ID/Hint : MP3
Duration : 1h 0mn
Bit rate mode : Constant
Bit rate : 128 Kbps
Channel(s) : 2 channels
Sampling rate : 48.0 KHz
Compression mode : Lossy
Stream size : 55.0 MiB (8%)
Alignment : Aligned on interleaves
Interleave, duration : 40 ms (1.00 video frame)
Interleave, preload duratio : 504 ms
Writing library : LAME3.99r
Encoding settings : -m s -V 4 -q 2 -lowpass 17 -b 128
2-я часть
Общее
Полное имя : Zapovednik_Moskovskij.GAT.im.Mossoveta.(2.chasti).1999.XviD.TVRip.fenixclub\Zapovednik_Moskovskij.GAT.im.Mossoveta.1999.(2-ya.chast').avi
Format : AVI
Format/Info : Audio Video Interleave
File size : 746 MiB
Duration : 1h 0mn
Overall bit rate : 1 733 Kbps
Writing application : VirtualDubMod 1.5.10.3 | www.virtualdub-fr.org || (build 2550/release)
Writing library : VirtualDubMod build 2550/release
Video
ID : 0
Format : MPEG-4 Visual
Format profile : Advanced Simple@L5
Format settings, BVOP : 2
Format settings, QPel : No
Format settings, GMC : No warppoints
Format settings, Matrix : Custom
Codec ID : XVID
Codec ID/Hint : XviD
Duration : 1h 0mn
Bit rate : 1 596 Kbps
Width : 656 pixels
Height : 496 pixels
Display aspect ratio : 4:3
Frame rate : 25.000 fps
Color space : YUV
Chroma subsampling : 4:2:0
Bit depth : 8 bits
Scan type : Progressive
Compression mode : Lossy
Bits/(Pixel*Frame) : 0.196
Stream size : 687 MiB (92%)
Writing library : XviD 73
Audio
ID : 1
Format : MPEG Audio
Format version : Version 1
Format profile : Layer 3
Codec ID : 55
Codec ID/Hint : MP3
Duration : 1h 0mn
Bit rate mode : Constant
Bit rate : 128 Kbps
Channel(s) : 2 channels
Sampling rate : 48.0 KHz
Compression mode : Lossy
Stream size : 55.1 MiB (7%)
Alignment : Aligned on interleaves
Interleave, duration : 40 ms (1.00 video frame)
Interleave, preload duratio : 504 ms
Writing library : LAME3.99r
Encoding settings : -m s -V 4 -q 2 -lowpass 17 -b 128

Скриншоты


Альтернативный хост





Показать сообщения:    

Текущее время: 08-Дек 19:10

Часовой пояс: UTC + 3


Вы не можете начинать темы
Вы не можете отвечать на сообщения
Вы не можете редактировать свои сообщения
Вы не можете удалять свои сообщения
Вы не можете голосовать в опросах
Вы не можете прикреплять файлы к сообщениям
Вы не можете скачивать файлы