Леди Макбет нашего уезда (Кама Гинкас) [2015 г., драма, SATRip] Московский театр юного зрителя


 

[Цитировать]

Леди Макбет нашего уезда (2 части) Название театра: Московский театр юного зрителя.
Жанр: драма.
Год выпуска: 2015.
Продолжительность: 02:10:30.
Режиссеры: Кама Гинкас, Виктор Безега.
Действующие лица и исполнители:
Катерина Львовна - Елизавета Боярская,
Борис Тимофеевич - народный артист России Валерий Баринов,
Зиновий Борисович - Александр Тараньжин,
Аксинья - Екатерина Александрушкина,
Сергей - Игорь Балалаев,
Мужик - Олег Ребров,
Федя Лямин - Степан Степанян,
Каторжане: Илона Борисова, Светлана Брейкина, Полина Одинцова, София Сливина, Сергей Белов, Евгений Волоцкий, Антон Коршунов, Илья Смирнов, Александр Тараньжин, Илья Шляга, Кирилл Комаров, Эльдар Калимулин, Искандер Шайхутдинов, Максим Виноградов, Юрий Тарасенко, Арсений Кудряшов.
Описание:
Спектакль, как всегда у Камы Гинкаса, легкостью темы и простотой режиссерского языка не отличается. За основу взята повесть Николая Лескова "Леди Макбет Мценского уезда", которая впервые была опубликована в январе 1865 года в журнале "Эпоха" под заглавием "Леди Макбет нашего уезда".
На фоне чувственной, животворящей красоты мира разворачивается страшная история любви Катерины Львовны. История омертвения, распада открытой к счастью юной души. История душегубства. Через жестокую, криминальную любовную историю Николая Лескова режиссер обращается к извечной, очень русской теме личной свободы и ее границ. Это попытка понять, отчего в России с ее гигантскими распахнутыми просторами, люди обречены на такую несвободу, на духоту тюрьмы. Этот спектакль - попытка проследить, как порыв к полнокровной жизни, к свободе заканчивается чудовищными кровопролитиями, убийствами и разрушением. Это спектакль о том, как опасно "душить" человека, задыхаясь от несвободы, он может превратиться в зверя.

Дополнительная информация:
Страна: Россия .
Выпущено: © Телеканал "Культура".
Награды и номинации:
• Спектакль лауреат театральной премии «Хрустальная Турандот» в номинациях: «Лучший спектакль» и «Лучшая женская роль».
• Спектакль лауреат премии Станиславского в номинации «Событие сезона».
Автор: Николай Лесков.
Режиссер спектакля: Кама Гинкас.
Пространство Сергея Бархина.
Художник по свету: Евгений Ганзбург.
Хореография: Константин Мишин.
Консультант по костюмам: Елена Орлова.
Консультант по вокалу: Мария Нефедова.
В спектакле звучит Великопостное песнопение Павла Чеснокова "Жертва вечерняя" в исполнении Ирины Архиповой, Бориса Христова и хора Суздальского мужского монастыря.
Премьера спектакля состоялась 28 ноября 2013 года.
Режиссёр телеверсии: Виктор Безега.
Оператор-постановщик: Евгений Тимохин.
Запись: 2015 года.

Премьера на телеканале "Культура" в 22:40 09.01.2016 г.

О спектакле.
Релиз
Рип lesik689.

Качество: SATRip
Формат: AVI
Видео:..704x400 (1.76:1), 25 fps, XviD MPEG-4 ~1802 kbps avg, 0.26 bit/pixel
Аудио:..48 kHz, MPEG Layer 3, 2 ch, ~128.00 kbps avg

Отчет Media Info

Общее
Полное имя : Ledi.Makbet.nashego.uezda_Moskovskij.TYuZ.2015.XviD.SATRip.fenixclub.avi
Format : AVI
Format/Info : Audio Video Interleave
File size : 1.77 GiB
Duration : 2h 10mn
Overall bit rate : 1 940 Kbps
Writing application : VirtualDubMod 1.5.10.2 (build 2542/release)
Writing library : VirtualDubMod build 2542/release
Video
ID : 0
Format : MPEG-4 Visual
Format profile : Advanced Simple@L5
Format settings, BVOP : 2
Format settings, QPel : No
Format settings, GMC : No warppoints
Format settings, Matrix : Default (MPEG)
Codec ID : XVID
Codec ID/Hint : XviD
Duration : 2h 10mn
Bit rate : 1 802 Kbps
Width : 704 pixels
Height : 400 pixels
Display aspect ratio : 5:4
Original display aspect rat : 16:9
Frame rate : 25.000 fps
Color space : YUV
Chroma subsampling : 4:2:0
Bit depth : 8 bits
Scan type : Progressive
Compression mode : Lossy
Bits/(Pixel*Frame) : 0.256
Stream size : 1.64 GiB (93%)
Writing library : XviD 73
Audio
ID : 1
Format : MPEG Audio
Format version : Version 1
Format profile : Layer 3
Mode : Joint stereo
Mode extension : MS Stereo
Codec ID : 55
Codec ID/Hint : MP3
Duration : 2h 10mn
Bit rate mode : Constant
Bit rate : 128 Kbps
Channel(s) : 2 channels
Sampling rate : 48.0 KHz
Compression mode : Lossy
Stream size : 119 MiB (7%)
Alignment : Split accross interleaves
Interleave, duration : 40 ms (1.00 video frame)
Interleave, preload duratio : 500 ms.

Скриншот с названием постановки

Скриншоты



Альтернативный хост






Показать сообщения:    

Текущее время: 03-Дек 14:39

Часовой пояс: UTC + 3


Вы не можете начинать темы
Вы не можете отвечать на сообщения
Вы не можете редактировать свои сообщения
Вы не можете удалять свои сообщения
Вы не можете голосовать в опросах
Вы не можете прикреплять файлы к сообщениям
Вы не можете скачивать файлы