Четыре жены и один выходной (Олег Куртанидзе) [2012 г., Лирическая комедия, WEB-DLRip] Калининградский областной драматический театр


 

[Цитировать]

Четыре жены и один выходной Название театра: Калининградский областной драматический театр.
Год выпуска: 2012.
Жанр: Лирическая комедия в 2-х действиях.
Продолжительность: 01:58:32.
Режиссер-постановщик: Олег Куртанидзе (Москва).
Действующие лица и исполнители:
Абдулла Петрович - заслуженный артист России Василий Швечков (ст.),
Галина - Галина Лукина,
Ольга - заслуженная артистка России Наталья Высоцкая,
Мария - заслуженная артистка Грузии Тамара Грузец,
Авдотья - Людмила Титова,
Пластическая группа - Светлана Малиновская, Ольга Назарова, Елена Носырева, Любовь Орлова.
О спектакле:
По пьесе башкирского драматурга Флорида Булякова "Выходили бабки замуж".
"Четыре жены и один выходной" - это сегодняшняя история с положительными персонажами и счастливым концом. Четыре женщины, не имеющие шансов победить в местном конкурсе красоты, все же продолжают надеяться на принца. В спектакле много танцев и музыки - "Битлз", Ваенга, Тальков. Песни исполняют любимцы калининградской публики - Наталья Высоцкая, Тамара Грузец, Людмила Козлова, Галина Лукина и Василий Швечков-старший.
на сцене поделен бетонным забором на две разные части. С одной стороны - молодость, смех, танцы, а с другой - боль, убогость бытия и нищета, обстановка дома-интерната для престарелых и инвалидов. Тут часы напролет женщины говорят о разном, спорят, а порой исповедуются.
В один прекрасный день в их интернате появляется электрик Абдулла Петрович - в халате и в чалме. Понимающий и добрый, готовый прийти на помощь каждой и защитить от одиночества. Тут и начинается самое интересное.
- Спектакль мне на самом деле приснился, - признался в интервью изданию режиссер Олег Куртанидзе. - Долго думал над его решением и буквально за неделю до приезда сюда увидел сон - там было все: с музыкой, с песнями-танцами, за исключением каких-то моментов, которые мы с актерами на репетициях придумали.

Дополнительная информация:
Страна: Россия .
Автор: Флорид Буляков.
Художник-постановщик: Евгений Болдырев.
Художник по костюмам: Татьяна Даль.
Художник по свету: Людмила Воронина.
Премьера спектакля состоялась 25 февраля 2012 года.

О спектакле.
Релиз
Рип sharky.

Качество видео:...WEB-DLRip
Формат:.................AVI
Видео:..704x384 (1.83:1), 25 fps, XviD build 47 ~1550 kbps avg, 0.23 bit/pixel
Аудио:..48 kHz, AC3 Dolby Digital, 2/0 (L,R) ch, ~192 kbps

Отчет MI

Общее
Полное имя : Chetyre.zheny.i.odin.vyhodnoj_Kaliningradskij.ODT.2012.XviD.WEB-DLRip.fenixclub.avi
Format : AVI
Format/Info : Audio Video Interleave
File size : 1.45 GiB
Duration : 1h 58mn
Overall bit rate : 1 753 Kbps
Writing application : VirtualDubMod 1.5.10.2 (build 2540/release)
Writing library : VirtualDubMod build 2540/release
Video
ID : 0
Format : MPEG-4 Visual
Format profile : Advanced Simple@L5
Format settings, BVOP : 1
Format settings, QPel : No
Format settings, GMC : No warppoints
Format settings, Matrix : Default (H.263)
Codec ID : XVID
Codec ID/Hint : XviD
Duration : 1h 58mn
Bit rate : 1 551 Kbps
Width : 704 pixels
Height : 384 pixels
Display aspect ratio : 1.85:1
Frame rate : 25.000 fps
Color space : YUV
Chroma subsampling : 4:2:0
Bit depth : 8 bits
Scan type : Progressive
Compression mode : Lossy
Bits/(Pixel*Frame) : 0.229
Stream size : 1.28 GiB (88%)
Writing library : XviD 1.2.0.dev47 (UTC 2006-11-01)
Audio
ID : 1
Format : AC-3
Format/Info : Audio Coding 3
Mode extension : CM (complete main)
Format settings, Endianness : Big
Codec ID : 2000
Duration : 1h 58mn
Bit rate mode : Constant
Bit rate : 192 Kbps
Channel(s) : 2 channels
Channel positions : Front: L R
Sampling rate : 48.0 KHz
Compression mode : Lossy
Stream size : 163 MiB (11%)
Alignment : Split accross interleaves
Interleave, duration : 40 ms (1.00 video frame)
Interleave, preload duratio : 500 ms.

Скриншоты


Альтернативный хост





Показать сообщения:    

Текущее время: 06-Дек 19:01

Часовой пояс: UTC + 3


Вы не можете начинать темы
Вы не можете отвечать на сообщения
Вы не можете редактировать свои сообщения
Вы не можете удалять свои сообщения
Вы не можете голосовать в опросах
Вы не можете прикреплять файлы к сообщениям
Вы не можете скачивать файлы