Экзистенция / eXistenZ (Дэвид Кроненберг / David Cronenberg) [1999, Канада, Великобритания, фантастика, триллер, BDRip 720p] DVO (Cinema Prestige) + AVO (Гаврилов) + Original (Eng) + Sub (2x Rus, Eng)


 

[Цитировать]

Экзистенция / eXistenZГод выпуска: 1999
Страна: Канада, Великобритания
Жанр: фантастика, триллер
Продолжительность: 01:37:10
Перевод:
- профессиональный, двухголосый закадровый, Cinema Prestige
- авторский одноголосый, А. Гаврилов
Cубтитры: русские (2 вида), английские
Режиссер: Дэвид Кроненберг / David Cronenberg
В ролях: Дженнифер Джейсон Ли, Джуд Лоу, Иэн Холм, Уиллем Дефо, Дон МакКеллар, Каллум Кит Ренни, Кристофер Экклстон, Сара Полли, Роберт А. Силверман, Оскар Хсю
Описание: На закрытой презентации игры виртуальной реальности под названием «Экзистенция» на ее великолепную создательницу Аллегру Гелла совершает покушение сумасшедший убийца, который хочет уничтожить и ее игру! Вынужденная спасаться бегством, Аллегра подключает младшего сотрудника к тестированию поврежденной системы тем, что … убеждает его сыграть в Экзистенцию вместе с ней! События разворачиваются так, что угроза их реальной жизни пересекается с виртуальными событиями в игре.
Рейтинг MPAA: -Доп. информация:
IMDb: 6.8/10
Kinopoisk: 7.095/10
Sample

Интересные факты о фильме

  • В сцене, где представляют игру «Экзистенция», надпись на ID-карточке доктора Ноеля Дихтера сделана на древневавилонском языке.
  • Некоторые сцены фильма содержат ссылки на старый фильм Кроненберга «Видеодром» и психоделический роман Филиппа Дика «Стигматы Палмера Элдрича».
  • В сцене, где Кири возится с «портом» Аллегры, он бормочет на венгерском языке «спасибо, спасибо, спасибо».
  • Буквосочетание «isten», запрятанное в названии фильма между заглавными «X» и «Z», означает на венгерском «бог».
  • Ради «Экзистенции» Дженнифер Джейсон Ли пожертвовала ролью в фильме Кубрика «С широко закрытыми глазами».

Награды и номинации

Сатурн, 2000 год
Номинации (1):
* Лучший научно-фантастический фильм
Берлинский кинофестиваль, 1999 год
Победитель (1):
* Серебряный Медведь за выдающиеся художественные достижения ( Дэвид Кроненберг )
Номинации (1):
* Золотой Медведь
Качество: BDRip 720p
Формат: MKV
Видео: H.264, 1280x720 (1.78:1), 4160 kbps, 23,976 fps
Аудио №1: Russian, AC3, 6ch, 48 kHz, 384 kbps (Двухголосый, Cinema Prestige)
Аудио №2: Russian, AC3, 6ch, 48 kHz, 384 kbps (Одноголосый, Гаврилов)
Аудио №3: English, AC3, 6ch, 48 kHz, 640 kbps (Оригинал)
Субтитры №1: Russian, SRT, #1
Субтитры №2: Russian, SRT, #2
Субтитры №3: English, SRT-

Сравнение

Blu-Ray

tRuAVC

AMIABLE

Mediainfo

Format : Matroska
Format version : Version 4 / Version 2
File size : 3.78 GiB
Duration : 1h 37mn
Overall bit rate : 5 569 Kbps
Encoded date : UTC 2016-01-09 16:50:31
Writing application : mkvmerge v8.3.0 ('Over the Horizon') 64bit
Writing library : libebml v1.3.1 + libmatroska v1.4.2
DURATION : 01:37:09.664000000
NUMBER_OF_FRAMES : 182177
NUMBER_OF_BYTES : 466373120
_STATISTICS_WRITING_APP : mkvmerge v8.3.0 ('Over the Horizon') 64bit
_STATISTICS_WRITING_DATE_UTC : 2016-01-09 16:50:31
_STATISTICS_TAGS : BPS DURATION NUMBER_OF_FRAMES NUMBER_OF_BYTES
Attachment : Yes
Video
ID : 1
Format : AVC
Format/Info : Advanced Video Codec
Format profile : High@L4.1
Format settings, CABAC : Yes
Format settings, ReFrames : 8 frames
Codec ID : V_MPEG4/ISO/AVC
Duration : 1h 37mn
Bit rate : 4 051 Kbps
Width : 1 280 pixels
Height : 720 pixels
Display aspect ratio : 16:9
Frame rate mode : Constant
Frame rate : 23.976 fps
Color space : YUV
Chroma subsampling : 4:2:0
Bit depth : 8 bits
Scan type : Progressive
Bits/(Pixel*Frame) : 0.183
Stream size : 2.75 GiB (73%)
Writing library : x264 core 148 r2638kMod 7599210
Encoding settings : cabac=1 / ref=8 / deblock=1:-3:-2 / analyse=0x3:0x133 / me=umh / subme=11 / psy=1 / fade_compensate=0.00 / psy_rd=1.00:0.03 / mixed_ref=1 / me_range=32 / chroma_me=1 / trellis=2 / 8x8dct=1 / cqm=0 / deadzone=21,11 / fast_pskip=0 / chroma_qp_offset=-3 / threads=6 / lookahead_threads=1 / sliced_threads=0 / nr=0 / decimate=1 / interlaced=0 / bluray_compat=0 / constrained_intra=0 / fgo=0 / bframes=12 / b_pyramid=2 / b_adapt=2 / b_bias=0 / direct=1 / weightb=1 / open_gop=0 / weightp=2 / keyint=250 / keyint_min=23 / scenecut=40 / intra_refresh=0 / rc_lookahead=40 / rc=crf / mbtree=0 / crf=18.0000 / qcomp=0.65 / qpmin=0 / qpmax=69 / qpstep=4 / vbv_maxrate=62500 / vbv_bufsize=78125 / crf_max=0.0 / nal_hrd=none / filler=0 / ip_ratio=1.40 / pb_ratio=1.30 / aq=3:0.90
Language : English
Default : Yes
Forced : No
DURATION : 01:37:10.075000000
NUMBER_OF_FRAMES : 139782
NUMBER_OF_BYTES : 3031316211
_STATISTICS_WRITING_APP : mkvmerge v8.3.0 ('Over the Horizon') 64bit
_STATISTICS_WRITING_DATE_UTC : 2016-01-09 16:50:31
_STATISTICS_TAGS : BPS DURATION NUMBER_OF_FRAMES NUMBER_OF_BYTES
Matrix coefficients : BT.709
Audio #1
ID : 2
Format : AC-3
Format/Info : Audio Coding 3
Mode extension : CM (complete main)
Format settings, Endianness : Big
Codec ID : A_AC3
Duration : 1h 37mn
Bit rate mode : Constant
Bit rate : 384 Kbps
Channel(s) : 6 channels
Channel positions : Front: L C R, Side: L R, LFE
Sampling rate : 48.0 KHz
Bit depth : 16 bits
Compression mode : Lossy
Stream size : 267 MiB (7%)
Title : DVO, Cinema Prestige
Language : Russian
Default : Yes
Forced : No
Audio #2
ID : 3
Format : AC-3
Format/Info : Audio Coding 3
Mode extension : CM (complete main)
Format settings, Endianness : Big
Codec ID : A_AC3
Duration : 1h 37mn
Bit rate mode : Constant
Bit rate : 384 Kbps
Channel(s) : 6 channels
Channel positions : Front: L C R, Side: L R, LFE
Sampling rate : 48.0 KHz
Bit depth : 16 bits
Compression mode : Lossy
Stream size : 267 MiB (7%)
Title : AVO, Gavrilov
Language : Russian
Default : No
Forced : No
Audio #3
ID : 4
Format : AC-3
Format/Info : Audio Coding 3
Mode extension : CM (complete main)
Format settings, Endianness : Big
Codec ID : A_AC3
Duration : 1h 37mn
Bit rate mode : Constant
Bit rate : 640 Kbps
Channel(s) : 6 channels
Channel positions : Front: L C R, Side: L R, LFE
Sampling rate : 48.0 KHz
Bit depth : 16 bits
Compression mode : Lossy
Stream size : 445 MiB (11%)
Title : Original
Language : English
Default : No
Forced : No
Text #1
ID : 5
Format : UTF-8
Codec ID : S_TEXT/UTF8
Codec ID/Info : UTF-8 Plain Text
Title : #1
Language : Russian
Default : No
Forced : No
Text #2
ID : 6
Format : UTF-8
Codec ID : S_TEXT/UTF8
Codec ID/Info : UTF-8 Plain Text
Title : #2
Language : Russian
Default : No
Forced : No
Text #3
ID : 7
Format : UTF-8
Codec ID : S_TEXT/UTF8
Codec ID/Info : UTF-8 Plain Text
Language : English
Default : No
Forced : No
Menu
00:00:00.000 : en:Product Testing
00:05:58.958 : en:Marked for Death
00:13:15.828 : en:Never Played
00:20:13.212 : en:Getting Ported
00:25:21.887 : en:Bad Install
00:33:33.311 : en:Ski Club Operation
00:38:30.641 : en:Excited Bio-port
00:46:40.931 : en:Playing the Game
00:54:33.470 : en:Trained by the Best
01:00:48.544 : en:Game on Pause
01:06:39.862 : en:The Special
01:12:37.653 : en:Realists
01:19:08.577 : en:Infected
01:26:55.677 : en:Defecting
01:33:59.967 : en:TransCendenZ

x264 log

x264 [info]: frame I:1197 Avg QP:14.15 size: 92443
x264 [info]: frame P:25660 Avg QP:15.53 size: 42616
x264 [info]: frame B:112925 Avg QP:17.97 size: 16180
x264 [info]: consecutive B-frames: 1.4% 1.0% 3.5% 11.3% 21.9% 28.0% 21.1% 2.5% 4.4% 3.8% 0.4% 0.4% 0.4%
x264 [info]: mb I I16..4: 4.5% 87.3% 8.2%
x264 [info]: mb P I16..4: 1.1% 11.8% 0.6% P16..4: 29.2% 36.3% 14.2% 1.5% 0.1% skip: 5.3%
x264 [info]: mb B I16..4: 0.2% 1.1% 0.0% B16..8: 36.5% 24.0% 3.8% direct: 5.8% skip:28.5% L0:45.3% L1:43.3% BI:11.4%
x264 [info]: 8x8 transform intra:85.3% inter:59.8%
x264 [info]: coded y,uvDC,uvAC intra: 85.9% 83.8% 60.6% inter: 27.8% 19.4% 2.2%
x264 [info]: i16 v,h,dc,p: 77% 6% 4% 13%
x264 [info]: i8 v,h,dc,ddl,ddr,vr,hd,vl,hu: 10% 7% 9% 10% 13% 14% 11% 13% 13%
x264 [info]: i4 v,h,dc,ddl,ddr,vr,hd,vl,hu: 9% 6% 12% 9% 15% 15% 12% 11% 12%
x264 [info]: i8c dc,h,v,p: 41% 24% 20% 15%
x264 [info]: Weighted P-Frames: Y:7.4% UV:3.6%
x264 [info]: ref P L0: 43.2% 7.7% 19.7% 8.8% 7.2% 5.4% 4.8% 3.0% 0.3% 0.0%
x264 [info]: ref B L0: 68.3% 14.3% 7.9% 4.1% 3.1% 1.6% 0.6%
x264 [info]: ref B L1: 89.8% 10.2%
x264 [info]: kb/s:4159.56
x264 [info]: encoded 139782 frames, 4.46 fps, 4159.56 kb/s, duration 8:41:47.36

-

Скриншоты


-Релиз от группы -



Показать сообщения:    

Текущее время: 06-Дек 22:57

Часовой пояс: UTC + 3


Вы не можете начинать темы
Вы не можете отвечать на сообщения
Вы не можете редактировать свои сообщения
Вы не можете удалять свои сообщения
Вы не можете голосовать в опросах
Вы не можете прикреплять файлы к сообщениям
Вы не можете скачивать файлы