Две или три вещи, которые я знаю о ней / 2 ou 3 choses que je sais d'elle (Жан-Люк Годар / Jean-Luc Godard) [1967 г., Франция, драма, BDRemux 1080p] MVO + DVO + VO + Original Fre + Sub (Rus, Eng, Jap)


 

[Цитировать]

Две или три вещи, которые я знаю о ней / 2 ou 3 choses que je sais d'elle- Год выпуска: 1967
Страна: Франция
Жанр: драма
Продолжительность: 01:26:59
Перевод 1: Профессиональный (многоголосый закадровый) Камер-Тон-Фильм-Русь
Перевод 2: Профессиональный (двухголосый закадровый) Кармен Видео
Перевод 3: Одноголосый закадровый
Оригинальная аудиодорожка: Французская
Cубтитры: Русские (R5), английские (Criterion), японские-Режиссер: Жан-Люк Годар / Jean-Luc Godard
В ролях: Марина Влади, Анни Дюпре, Рауль Леви, Ив Бенейтон, Жан-Пьерр Лаверн, Клод Миллер, Жан Нарбони, Жюльет Берто, Кристоф Бурселье, Бландин Жансон, Роже Монтсоре-Описание:
Молодая домохозяйка, живущая в пригороде Парижа и не имеющая возможности устроиться на работу, вынуждена заняться древнейшей профессией, чтобы прокормить семью. Кажется, что муж даже не догадывается, чем занимается жена, но долго ли продержится это неведение, даже в таком большом городе, как Париж? Вся история происходит на фоне почти документальных зарисовок быта и нравов 60-х годов двадцатого века.-За русские дорожки спасибо iriston, jaggernaut и filolya.
| IMDb | Сэмпл-Качество: BDRemux 1080p (2 ou 3 choses que je sais d'elle 1967 1080p JPN Blu-ray AVC LPCM 2.0-SbR)
Контейнер: MKV
Видео: AVC, 1920x1080 (2.35:1), 23.976 fps, 29920 kbps
Аудио 1: Русский AC3 2.0, 48 kHz, 192 kbps — Камер-Тон-Фильм-Русь
Аудио 2: Русский AC3 2.0, 48 kHz, 192 kbps — Кармен Видео
Аудио 3: Русский AC3 2.0, 48 kHz, 192 kbps — VO
Аудио 4: Французский DTS-HD MA 2.0, 48 kHz, 893 kbps, 16-bit (DTS Core: 2.0, 48 kHz, 768 kbps, 16-bit)
Аудио 5: Английский AC3 1.0, 48 kHz, 192 kbps — Комментарии
Формат субтитров: softsub (SRT)

Скриншоты


MI

General
Unique ID : 177699771929999821932051196576579613142 (0x85AFBB2F138690C89FA17BD62EEE71D6)
Complete name : 2.ou.3.choses.que.je.sais.d'elle.1967.1080p.BDRemux.mkv
Format : Matroska
Format version : Version 2
File size : 19.2 GiB
Duration : 1h 27mn
Overall bit rate mode : Variable
Overall bit rate : 31.6 Mbps
Movie name : 2 ou 3 choses que je sais d'elle / Две или три вещи, которые я знаю о ней (1967) – RuTracker
Encoded date : UTC 2016-01-07 22:17:55
Writing application : mkvmerge v8.3.0 ('Over the Horizon') 64bit
Writing library : libebml v1.3.1 + libmatroska v1.4.2
Attachements : cover.jpg
Video
ID : 1
Format : AVC
Format/Info : Advanced Video Codec
Format profile : High@L4.1
Format settings, CABAC : Yes
Format settings, ReFrames : 2 frames
Codec ID : V_MPEG4/ISO/AVC
Duration : 1h 27mn
Bit rate mode : Variable
Width : 1 920 pixels
Height : 1 080 pixels
Display aspect ratio : 16:9
Frame rate mode : Constant
Frame rate : 23.976 fps
Color space : YUV
Chroma subsampling : 4:2:0
Bit depth : 8 bits
Scan type : Progressive
Title : 2 ou 3 choses que je sais d'elle 1967 1080p JPN Blu-ray AVC LPCM 2.0-SbR
Language : French
Default : Yes
Forced : No
Color range : Limited
Color primaries : BT.709
Transfer characteristics : BT.709
Matrix coefficients : BT.709
Audio #1
ID : 2
Format : AC-3
Format/Info : Audio Coding 3
Mode extension : CM (complete main)
Format settings, Endianness : Big
Codec ID : A_AC3
Duration : 1h 27mn
Bit rate mode : Constant
Bit rate : 192 Kbps
Channel(s) : 2 channels
Channel positions : Front: L R
Sampling rate : 48.0 KHz
Compression mode : Lossy
Stream size : 120 MiB (1%)
Title : MVO – Камер-Тон-Фильм-Русь
Language : Russian
Default : Yes
Forced : No
Audio #2
ID : 3
Format : AC-3
Format/Info : Audio Coding 3
Mode extension : CM (complete main)
Format settings, Endianness : Big
Codec ID : A_AC3
Duration : 1h 27mn
Bit rate mode : Constant
Bit rate : 192 Kbps
Channel(s) : 2 channels
Channel positions : Front: L R
Sampling rate : 48.0 KHz
Compression mode : Lossy
Stream size : 120 MiB (1%)
Title : DVO – Кармен Видео
Language : Russian
Default : No
Forced : No
Audio #3
ID : 4
Format : AC-3
Format/Info : Audio Coding 3
Mode extension : CM (complete main)
Format settings, Endianness : Big
Codec ID : A_AC3
Duration : 1h 27mn
Bit rate mode : Constant
Bit rate : 192 Kbps
Channel(s) : 2 channels
Channel positions : Front: L R
Sampling rate : 48.0 KHz
Compression mode : Lossy
Stream size : 120 MiB (1%)
Title : VO
Language : Russian
Default : No
Forced : No
Audio #4
ID : 5
Format : DTS
Format/Info : Digital Theater Systems
Format profile : MA / Core
Mode : 16
Format settings, Endianness : Big
Codec ID : A_DTS
Duration : 1h 27mn
Bit rate mode : Variable
Bit rate : Unknown / 768 Kbps
Channel(s) : 2 channels
Channel positions : Front: L R
Sampling rate : 48.0 KHz
Bit depth : 16 bits
Compression mode : Lossless / Lossy
Title : Original
Language : French
Default : No
Forced : No
Audio #5
ID : 6
Format : AC-3
Format/Info : Audio Coding 3
Mode extension : CM (complete main)
Format settings, Endianness : Big
Codec ID : A_AC3
Duration : 1h 27mn
Bit rate mode : Constant
Bit rate : 192 Kbps
Channel(s) : 1 channel
Channel positions : Front: C
Sampling rate : 48.0 KHz
Compression mode : Lossy
Stream size : 120 MiB (1%)
Title : Commentary featuring film scholar Adrian Martin
Language : English
Default : No
Forced : No
Text #1
ID : 7
Format : UTF-8
Codec ID : S_TEXT/UTF8
Codec ID/Info : UTF-8 Plain Text
Title : R5
Language : Russian
Default : No
Forced : No
Text #2
ID : 8
Format : UTF-8
Codec ID : S_TEXT/UTF8
Codec ID/Info : UTF-8 Plain Text
Title : Criterion
Language : English
Default : No
Forced : No
Text #3
ID : 9
Format : PGS
Codec ID : S_HDMV/PGS
Codec ID/Info : Picture based subtitle format used on BDs/HD-DVDs
Language : Japanese
Default : No
Forced : No
Menu
00:00:00.000 : en:01. Terrace
00:03:32.754 : en:02. Kitchen Table
00:08:53.324 : en:03. BED
00:12:30.792 : en:04. Gérard's Apartment
00:16:14.765 : en:05. Clothes Shop
00:23:17.771 : en:06. Café
00:31:04.738 : en:07. Room
00:36:04.162 : en:08. Salon
00:41:57.140 : en:09. Garage
00:49:02.481 : en:10. Hotel Room
00:58:01.186 : en:11. Café
01:12:06.989 : en:12. High-Rise
01:17:04.370 : en:13. Stairwell
01:19:49.368 : en:14. Apartment



Показать сообщения:    

Текущее время: 07-Дек 23:14

Часовой пояс: UTC + 3


Вы не можете начинать темы
Вы не можете отвечать на сообщения
Вы не можете редактировать свои сообщения
Вы не можете удалять свои сообщения
Вы не можете голосовать в опросах
Вы не можете прикреплять файлы к сообщениям
Вы не можете скачивать файлы