(Classical) Franz Schubert — Symphonies № 8 & 9 (D 759 & 944) (Charles Munch) — 1991, FLAC (tracks+.cue) lossless


 

[Цитировать]

Symphonies № 8 & 9 (D 759 & 944)-
Жанр: Classical
Страна-производитель диска: США
Издатель (лейбл): RCA Victor Silver Seal
Номер по каталогу: 60792-2-RV
Год издания диска: 1991
Годы записи фонограмм: 02.02.1955, 19.11.1958, Symphony Hall, Boston, Massachusetts, United States
Композитор: Franz Schubert
Исполнительский коллектив: Boston Symphony Orchestra under Charles Munch
Аудио кодек: flac
Тип рипа: tracks+.cue
Битрейт аудио: lossless
Продолжительность: 01h08'32"
Источник: web
Наличие сканов в содержимом раздачи: да-Треклист:
(01-02) Symphony № 8 h-moll D 759 «Unfinished» [23'59"]
(03-06) Symphony № 9 C-Dur D 944 «The Great» [44'33"]-

EAC log

Exact Audio Copy V1.0 beta 4 from 7. December 2014
EAC extraction logfile from 17. October 2015, 10:33
Charles Munch/Boston Symphony Orchestra / Schubert Symphonies 8 and 9
Used drive  : HL-DT-STDVDRAM GH24NSC0   Adapter: 1  ID: 0
Read mode               : Secure
Utilize accurate stream : Yes
Defeat audio cache      : Yes
Make use of C2 pointers : No
Read offset correction                      : 6
Overread into Lead-In and Lead-Out          : No
Fill up missing offset samples with silence : Yes
Delete leading and trailing silent blocks   : No
Null samples used in CRC calculations       : Yes
Used interface                              : Native Win32 interface for Win NT & 2000
Gap handling                                : Appended to previous track
Used output format              : User Defined Encoder
Selected bitrate                : 1024 kBit/s
Quality                         : High
Add ID3 tag                     : No
Command line compressor         : D:\Programs\Exact Audio Copy\Flac\flac.exe
Additional command line options : -8 -V -T "ARTIST=%artist%" -T "TITLE=%title%" -T "ALBUM=%albumtitle%" -T "DATE=%year%" -T "TRACKNUMBER=%tracknr%" -T "GENRE=%genre%" -T "PERFORMER=%albuminterpret%" -T "COMPOSER=%composer%" %haslyrics%--tag-from-file=LYRICS="%lyricsfile%"%haslyrics% -T "ALBUMARTIST=%albumartist%" -T "DISCNUMBER=%cdnumber%" -T "TOTALDISCS=%totalcds%" -T "TOTALTRACKS=%numtracks%" -T "COMMENT=%comment%" %source% -o %dest%
TOC of the extracted CD
     Track |   Start  |  Length  | Start sector | End sector
    ---------------------------------------------------------
        1  |  0:00.00 | 12:14.55 |         0    |    55104
        2  | 12:14.55 | 11:43.65 |     55105    |   107894
        3  | 23:58.45 | 12:34.00 |    107895    |   164444
        4  | 36:32.45 | 13:12.73 |    164445    |   223917
        5  | 49:45.43 |  7:59.67 |    223918    |   259909
        6  | 57:45.35 | 10:46.13 |    259910    |   308372
Track  1
     Filename D:\Music\01. Sym No 8 Allegro Moderato.wav
     Pre-gap length  0:00:02.00
     Peak level 82.7 %
     Extraction speed 1.3 X
     Track quality 99.9 %
     Test CRC 99874BB7
     Copy CRC 99874BB7
     Accurately ripped (confidence 3)  [088AB0A7]  (AR v2)
     Copy OK
Track  2
     Filename D:\Music\02. Sym No 8 Andante con moto.wav
     Pre-gap length  0:00:04.45
     Peak level 71.2 %
     Extraction speed 1.7 X
     Track quality 100.0 %
     Test CRC B6814940
     Copy CRC B6814940
     Accurately ripped (confidence 3)  [1F3233F0]  (AR v2)
     Copy OK
Track  3
     Filename D:\Music\03. Sym No 9 Andante; Allegro ma non troppo.wav
     Pre-gap length  0:00:09.47
     Peak level 91.5 %
     Extraction speed 2.0 X
     Track quality 100.0 %
     Test CRC 7DD9635C
     Copy CRC 7DD9635C
     Accurately ripped (confidence 3)  [676B493D]  (AR v2)
     Copy OK
Track  4
     Filename D:\Music\04. Sym No 9 Andante con moto.wav
     Pre-gap length  0:00:09.00
     Peak level 93.2 %
     Extraction speed 2.3 X
     Track quality 100.0 %
     Test CRC E7906ACC
     Copy CRC E7906ACC
     Accurately ripped (confidence 3)  [4341EF72]  (AR v2)
     Copy OK
Track  5
     Filename D:\Music\05. Sym No 9 Scherzo- Allegro vivace.wav
     Pre-gap length  0:00:04.13
     Peak level 75.6 %
     Extraction speed 2.4 X
     Track quality 100.0 %
     Test CRC D88D8C06
     Copy CRC D88D8C06
     Accurately ripped (confidence 3)  [19690335]  (AR v2)
     Copy OK
Track  6
     Filename D:\Music\06. Sym No 9 Finale- Allegro vivace.wav
     Pre-gap length  0:00:04.37
     Peak level 77.3 %
     Extraction speed 0.5 X
     Track quality 100.0 %
     Test CRC 3691996B
     Copy CRC 3691996B
     Accurately ripped (confidence 3)  [D529E8FD]  (AR v2)
     Copy OK
All tracks accurately ripped
No errors occurred
End of status report
---- CUETools DB Plugin V2.1.4
[CTDB TOCID: h8Iwgw3xOsEzExSW0ySNwuGNuqA-] found
Submit result: h8Iwgw3xOsEzExSW0ySNwuGNuqA- has been confirmed
Track | CTDB Status
  1   | (1/1) Accurately ripped
  2   | (1/1) Accurately ripped
  3   | (1/1) Accurately ripped
  4   | (1/1) Accurately ripped
  5   | (1/1) Accurately ripped
  6   | (1/1) Accurately ripped
==== Log checksum 37176F7B64B041DD5AC30057D2FC71591D921300253FA38A134B87929CB6B1C6 ====

-

CUE

REM GENRE Classical
REM DATE 1991
REM DISCID 59100F06
REM COMMENT "ExactAudioCopy v1.0b4"
PERFORMER "Charles Munch/Boston Symphony Orchestra"
TITLE "Schubert Symphonies 8 and 9"
FILE "01. Sym No 8 Allegro Moderato.wav" WAVE
  TRACK 01 AUDIO
    TITLE "Sym No 8 Allegro Moderato"
    PERFORMER "Charles Munch/Boston Symphony Orchestra"
    INDEX 01 00:00:00
  TRACK 02 AUDIO
    TITLE "Sym No 8 Andante con moto"
    PERFORMER "Charles Munch/Boston Symphony Orchestra"
    INDEX 00 12:10:10
FILE "02. Sym No 8 Andante con moto.wav" WAVE
    INDEX 01 00:00:00
  TRACK 03 AUDIO
    TITLE "Sym No 9 Andante; Allegro ma non troppo"
    PERFORMER "Charles Munch/Boston Symphony Orchestra"
    INDEX 00 11:34:18
FILE "03. Sym No 9 Andante; Allegro ma non troppo.wav" WAVE
    INDEX 01 00:00:00
  TRACK 04 AUDIO
    TITLE "Sym No 9 Andante con moto"
    PERFORMER "Charles Munch/Boston Symphony Orchestra"
    INDEX 00 12:25:00
FILE "04. Sym No 9 Andante con moto.wav" WAVE
    INDEX 01 00:00:00
  TRACK 05 AUDIO
    TITLE "Sym No 9 Scherzo: Allegro vivace"
    PERFORMER "Charles Munch/Boston Symphony Orchestra"
    INDEX 00 13:08:60
FILE "05. Sym No 9 Scherzo- Allegro vivace.wav" WAVE
    INDEX 01 00:00:00
  TRACK 06 AUDIO
    TITLE "Sym No 9 Finale: Allegro vivace"
    PERFORMER "Charles Munch/Boston Symphony Orchestra"
    INDEX 00 07:55:30
FILE "06. Sym No 9 Finale- Allegro vivace.wav" WAVE
    INDEX 01 00:00:00
-



Показать сообщения:    

Текущее время: 06-Дек 15:10

Часовой пояс: UTC + 3


Вы не можете начинать темы
Вы не можете отвечать на сообщения
Вы не можете редактировать свои сообщения
Вы не можете удалять свои сообщения
Вы не можете голосовать в опросах
Вы не можете прикреплять файлы к сообщениям
Вы не можете скачивать файлы